Torrent Kategoriler

A
B
C
D
E
F
G
H
I
J
K
L
M
N
O
P
Q
R
S
T
U
V
W
X
Y
Z
0-9
Sevmek Loving 2016 TR BRRip XviD Torrent

Genişletmek için Tıkla!
05-06-2017 11:18 , erdaldemir20 Tarafından Yüklendi.
Kaynaklar: 4 / İndirilen: 0 / Boyut: 1.13 GB / Tamamlandı: 149
Torrenti İndir  Torrenti Şikayet Et Torrent Tanımı Tanıtım Videosu
IMDB Puanı: 7.1 7.1/10
Kategori: BRRip-BDRip
http://www.imdb.com/title/tt4669986/

Sevmek Loving 2016 TR BRRip XviD

Günümüzden takriben olarak bir yüzyıl öncesinde, Amerika Birleşik Devletleri’ne ait Virgina Eyaleti’nde çıkarılan bir yasa ile rengi beyaz olan bir insan ile rengi siyah olan bir insanın izdivaç etmesi yasaktır. Yasanın ihlali neticeninde suçlular mapus cezası yargısı ile yargılanırlar. Böylesine bir yasa kendilerini eşitliğin ve demokrasinin anavatanı olarak görün Amerika Birleşik Devletleri’nde ırçılığın olduğunu açıkça beyan eden bir kanundur. Bu kanuna karşı gelerek izdivaç eden Richard Loving ile Mildred Loving çiftinin tüm dünya ırkçılığa karşı olduklarına konusunda izahlarda bulunmalarını ile halkın kendilerine destek olup haklı görülmeleri ile dünyada ırkçılığa karşı ehemmiyetli bir duruş sergilemelerini, kendilerini ırkçılığın simgesi duyuru etmelerini, ölümsüzleşmelerini izleyeceğiz.
General
Complete name : C:\Users\ErdaL DemiR\Desktop\Sevmek - Loving 2016 TR BRRip XviD.avi
Format : AVI
Format/Info : Audio Video Interleave
Format profile : OpenDML
File size : 1.13 GiB
Duration : 2h 3mn
Overall bit rate : 1 316 Kbps
Writing application : Lavf55.12.100
Video
ID : 1
Format : MPEG-4 Visual
Format settings, BVOP : No
Format settings, QPel : No
Format settings, GMC : No warppoints
Format settings, Matrix : Default (H.263)
Codec ID : FMP4
Duration : 2h 3mn
Bit rate : 1 108 Kbps
Width : 720 pixels
Height : 300 pixels
Display aspect ratio : 2.40:1
Frame rate : 23.976 fps
Color space : YUV
Chroma subsampling : 4:2:0
Bit depth : 8 bits
Scan type : Progressive
Compression mode : Lossy
Bits/(Pixel*Frame) : 0.214
Stream size : 975 MiB (84%)
Writing library : Lavc55.18.102
Audio
ID : 0
Format : MPEG Audio
Format version : Version 1
Format profile : Layer 3
Mode : Joint stereo
Mode extension : MS Stereo
Codec ID : 55
Codec ID/Hint : MP3
Duration : 2h 3mn
Bit rate mode : Constant
Bit rate : 192 Kbps
Channel(s) : 2 channels
Sampling rate : 48.0 KHz
Compression mode : Lossy
Stream size : 169 MiB (15%)
Alignment : Aligned on interleaves
Interleave, duration : 42 ms (1.00 video frame)
a
µTorrent 3.4.5.41865 Final Katılımsız Torrent

Genişletmek için Tıkla!
05-06-2017 00:40 , saidemreekazak Tarafından Yüklendi.
Kaynaklar: 8 / İndirilen: 0 / Boyut: 7.85 MB / Tamamlandı: 362
Torrenti İndir  Torrenti Şikayet Et Torrent Tanımı
Kategori: Program

uTorrent 3.4.5.41865 Final Katılımsız


Güçlü, hızlı ve küçük boyutlu bir BitTorrent istemcisi olan uTorrent, gelişmiş istemcilerin sağladığı özellikleri; daha az işlemci, bellek ve sabit disk alanı kullanarak sunabilmektedir. Video, müzik, oyun gibi internet ortamında yer alan dosyaları indirmenize yarayan bu program oldukça kullanışlıdır.
Yazılımın Genel Özellikleri;
Basit arayüz, kolay kullanım
Ufak boyutlu dosya
Birden fazla sitede .torrent dosya arayabilme
Yüklenecek dosyaları sıralama
Yükleme hızı ayarlayabilme
Öncelikli yükleme özelliği
Birde fazla kişiden aynı anda dosya indirme
Yüklenen dosyaları arşivleme
RSS ile arama ve yükleme
İnnDirme adresinden direkt yükleme
Çevrimiçi olarak programı güncelleştirme
Otomatik ve kolay kurulum, kullanılmayacağı zaman kolaylıkla programı kaldırabilme
Reklamsız
Yüklenen dosyaya ait geniş içerikli yükleme bilgi görüntüleme
Türkçe dil desteği
Düzenlenebilir bant genişliği paylaşımı
Trackerless desteği
UPnP desteği (Sadece Windows XP'de)
6 Mb'den düşük bellek kullanımı
Öncelikle önceki sürümü kaldırın, Revo Uninstaller veya IObit Uninstaller ile temizlik yapıp yeniden başlatın.
Ardında Antivirüs programınızı geçici olarak devredışı bırakın.
Windows 10'da Windows Defender'ı kapatın.
İndirdiğiniz dosyayı yönetici olarak çalıştırın.
Katılımsız olduğundan kurulum otomatik olarak kısa bir sürede tamamlanacaktır.

# Dil Paketi Eklenmiştir.
# IPFilter'in Son Sürümü Eklenmiştir.
# Pro'ya Yükselt Ekranı Kaldırılmıştır.
# Reklamlar Kaldırılmıştır. Toolbar vs Kurulmaz.
*
Windows XP
Windows Vista
Windows 7
Windows 8
Windows 8.1
Windows 10
BitTorrent 7.9.8.42450 Katılımsız Torrent

Genişletmek için Tıkla!
05-06-2017 00:00 , saidemreekazak Tarafından Yüklendi.
Kaynaklar: 7 / İndirilen: 0 / Boyut: 4.14 MB / Tamamlandı: 135
Torrenti İndir  Torrenti Şikayet Et Torrent Tanımı
Kategori: Program

BitTorrent 7.9.8.42450 Katılımsız


BitTorrent, 150 milyonun üzerinde kullanıcı kitlesine sahip bir dosya paylaşım yazılımıdır.
Yazılım torrent ağları üzerinde birbirleri ile dosya paylaşımında bulunan kullanıcıların oluşturdukları ortak havuzdan veri indirme işlevine sahiptir.
Tabi bu havuzda dosyalarını paylaşanların sayısı böylesine devasa bir boyuta ulaştığından BitTorrent yazılımı rakiplerine nazaran daha başarılı sonuçlar verebilmektedir.
BitTorrent özellikle aranan her dosyanın bulunabildiği bir paylaşım uygulaması olduğu için öne çıkmış bir yazılımdır.
İstediğiniz türde dosyanın torrent adresini bulup indirme yapabileceğiniz yazılım bu kategorideki şüphesiz en iyi araçlardan bir tanesidir.
Diğer dosya paylaşım yazılımlarında yaşanan takılma, seri yükleme yapamama, yavaş indirme gibi sorunlar BitTorrent ile pek ortaya çıkabilecek durumlar değildir.
İstediğiniz kadar dosyayı aynı anda indirebilir, yarıda kalan dosyaların indirmesine kaldığı yerden devam edebilirsiniz.
Yazılımın Genel Özellikleri:
Dinamik bant genişliği yönetimi.
Diğer uygulamaları karıştırmadan indirme yapabilme.
Medya dosyalarının güvenlik riski nedeniyle ayrıntılı bilgilendirme yapabilme.
Herhangi bir donanımsal gereksinime ihtiyaç duymaz.
Hızlı dosya indirme.
Düşük hıza sahip kullanıcılar için de mükemmel bir yapı.
Yerel bağlantı keşfi.
Yapılandırılabilir bant genişliği zamanlaması.
Her indirilen dosya için hız limiti koyabilme.
RSS yükleyici.
Öncelikle önceki sürümü kaldırın, Revo Uninstaller veya IObit Uninstaller ile temizlik yapıp yeniden başlatın.
Ardında Antivirüs programınızı geçici olarak devredışı bırakın.
Windows 10'da Windows Defender'ı kapatın.
İndirdiğiniz dosyayı yönetici olarak çalıştırın.
Katılımsız olduğundan kurulum otomatik olarak kısa bir sürede tamamlanacaktır.

#Toolbar ve Reklamsız Temiz Kurulum
# Güncellemeler Kapatıldı.
# Başlangıç Açılışı Kapatıldı.
*
Windows XP
Windows Vista
Windows 7
Windows 8
Windows 8.1
Windows 10
VEGAS Pro 14.0 Build 252 Katılımsız x64 Torrent

Genişletmek için Tıkla!
04-06-2017 23:38 , saidemreekazak Tarafından Yüklendi.
Kaynaklar: 4 / İndirilen: 0 / Boyut: 168.56 MB / Tamamlandı: 201
Torrenti İndir  Torrenti Şikayet Et Torrent Tanımı
Kategori: Program

VEGAS Pro 14.0 Build 252 Katılımsız x64



Sony Vegas Pro kolay,güvenilir video düzenleme programıdır.Kendi filmlerinizi çekebilir, düzenleyebilir bunları yayınlayabilirsiniz.
Sony Vegas Pro dünya çapında ün salmış program olup profesyonel video editörlerinin kullandığı programdır.Sadece video ile değil fotoğraflarınızı da düzenleyebilir,
efekt ekleyip onarmak mümkündür.
Biraz karışık görünse de kullanımı oldukça basittir.
Gerekli video kanallarında eğitim videoları vardır.
Bir çok kişinin bu programı kullanma amacı kısa introlar hazırlamaktır.
Öncelikle önceki sürümü kaldırın, Revo Uninstaller veya IObit Uninstaller ile temizlik yapıp yeniden başlatın.
Ardında Antivirüs programınızı geçici olarak devredışı bırakın.
Windows 10'da Windows Defender'ı kapatın.
İndirdiğiniz dosyayı yönetici olarak çalıştırın.
Katılımsız olduğundan kurulum otomatik olarak kısa bir sürede tamamlanacaktır.

# Ultra Sıkıştırma Yapılmıştır.
# Crack Dosyaları Kuruluma Gömülmüştür.

Windows XP
Windows Vista
Windows 7
Windows 8
Windows 8.1
Windows 10
DAEMON Tools Ultra 5.1.1.0588 TR Torrent

Genişletmek için Tıkla!
04-06-2017 18:47 , saidemreekazak Tarafından Yüklendi.
Kaynaklar: 1 / İndirilen: 0 / Boyut: 32.15 MB / Tamamlandı: 304
Torrenti İndir  Torrenti Şikayet Et Torrent Tanımı
Kategori: Program

DAEMON Tools Ultra 5.1.1.0588 Türkçe Katılımsız


Gelişmiş CD/DVD/HDD/Blu-ray Disk İmaj Yönetimi DAEMON Tools Ultra, popüler ve çok kullanılan DAEMON Tools Lite ve DAEMON Tools Pro'na birçok yönden benzer ve özellikleri gelişmiş bir versiyonudur..
Program ile disk imajları görüntüleme, çıkartma, diske yazma, oluşturma, düzenleme, sıkıştırma, şifreleme, bölme, farklı imaj formatlarına çevirme ve sanal sürücüye mount etme gibi birçok işlemi sunduğu gelişmiş seçeneklerle yapabilirsiniz.
DAEMON Tools Ultra ile ayrıca;
VHD (Virtual Hardi Disk) Sanal hard disk oluşturup mount edebilir
İmajları boot edilebilir USB cihazlara yazabilme
RAM Diskler oluşturabilme
iSCSI protokolüyle uzak CD/DVD ya da HDD'lere erişebilme Hızlı Mount özelliği
Öncelikle eski sürümü yüklüyse kaldırın, Ccleaner ile temizlik yapıp yeniden başlatın.
Ardından Antivirüs programınızı geçici olarak devredışı bırakın.
Windows 10'da Windows Defender'ı kapatın.
İndirdiğiniz dosyayı yönetici olarak çalıştırın.
Katılımsız olduğundan kurulum otomatik olarak kısa bir sürede tamamlanacaktır.

Windows XP
Windows Vista
Windows 7
Windows 8
Windows 8.1
Windows 10
Wondershare Video Converter Ultimate 9.0.4.0 Torrent

Genişletmek için Tıkla!
04-06-2017 18:38 , saidemreekazak Tarafından Yüklendi.
Kaynaklar: 5 / İndirilen: 0 / Boyut: 59.23 MB / Tamamlandı: 158
Torrenti İndir  Torrenti Şikayet Et Torrent Tanımı
Kategori: Program

Wondershare Video Converter Ultimate 9.0.4.0 Katılımsız



Wondershare Video Converter Ultimate,Video Dönüştürme Programı Wondershare Video Converter Ultimate, video dönüştürme, çevrimiçi video indirme, cihazlar arası video transferi ve cd/dvd yazma işlemlerini bir arada toplayan popüler bir video programıdır. Wondershare Video Converter Ultimate programı ile video dönüştürme işlemi yapılabilecek video formatları:
TIVO, AVI, MP4, DAT, MPG, MPEG, NUT, H.264, NSV, VOB, MOV, FLV, MKV, MTS/M2TS/TS/TP/TRP(AVCHD, H.264, VC-1, MPEG-2 HD), MOD, TOD, DV, WMV, ASF, 3GP, 3G2, DRM MP4
Wondershare Video Converter Ultimate programı ile video dönüştürme işlemi sonucunda elde edilebilecek video formatları: 3 boyutlu: 3D MP4, 3D WMV, 3D AVI, 3D MKV, 3D YouTube video HD: HD MKV, HD TS, HD TRP, HD AVI, HD MP4, HD MPG, HD WMV, HD MOV Diğer: ASF, MOV, M4V, MP4-AVC, MP4-XviD, MP4-MC, WMV, MKV, AVI, XviD, DV, MPEG-1 NTSC, MPEG-1 PAL, MPEG-1 SECAM, MPEG-2 NTSC, MPEG-2 PAL, MPEG-2 SECAM, DVD-Video NTSC, DVD-Video PAL, DVD-Video SECAM, FLV, F4V, SWF, 3GP, 3G2
Wondershare Video Converter Ultimate programı ile 2D özelliğine sahip videoları 3D özelliğine kavuşturmak mümkün.
Öncelikle eski sürümü yüklüyse kaldırın, Ccleaner ile temizlik yapıp yeniden başlatın.
Ardından Antivirüs programınızı geçici olarak devredışı bırakın.
Windows 10'da Windows Defender'ı kapatın.
İndirdiğiniz dosyayı yönetici olarak çalıştırın.
Katılımsız olduğundan kurulum otomatik olarak kısa bir sürede tamamlanacaktır.

Windows XP
Windows Vista
Windows 7
Windows 8
Windows 8.1
Windows 10
WinSnap 4.5.9 Final TR Torrent

Genişletmek için Tıkla!
04-06-2017 18:13 , saidemreekazak Tarafından Yüklendi.
Kaynaklar: 2 / İndirilen: 0 / Boyut: 3.91 MB / Tamamlandı: 67
Torrenti İndir  Torrenti Şikayet Et Torrent Tanımı
Kategori: Program

WinSnap 4.5.9 Final Türkçe Katılımsız



WinSnap ekran görüntüsü alma ve resim düzenleme işlemleri yapabileceğiniz küçük ama etkili bir programdır. Kolaylıkla ekran görüntüsü almanıza yardımcı olan bu araç, otomatik çerçeve dönüşümleri, renklendirme, efekt ekleme, ve ışık ayarları gibi birçok gelişmiş düzenleme seçeneğine sahiptir.
Öncelikle eski sürümü yüklüyse kaldırın, Ccleaner ile temizlik yapıp yeniden başlatın.
Ardından Antivirüs programınızı geçici olarak devredışı bırakın.
Windows 10'da Windows Defender'ı kapatın.
Yönetici olarak çalıştırın.
Katılımsız olduğundan kurulum otomatik olarak kısa bir sürede tamamlanacaktır.

Windows XP
Windows Vista
Windows 7
Windows 8
Windows 8.1
Windows 10
FileZilla 3.26.1 Final Torrent

Genişletmek için Tıkla!
04-06-2017 17:37 , saidemreekazak Tarafından Yüklendi.
Kaynaklar: 1 / İndirilen: 0 / Boyut: 13.68 MB / Tamamlandı: 38
Torrenti İndir  Torrenti Şikayet Et Torrent Tanımı
Kategori: Program

FileZilla FTP 3.26.1 Final Katılımsız



FileZilla açık kaynak kodlu, popüler bir FTP aracıdır. FTP programına ihtiyacınız varsa bu ücretsiz programı denemeden devam etmeyin.
Özellikleri
Dosyalara kaldığı yerden devam edebilme
Özel komutlara destek verme
Keep Alive sistemi, Timeout farkedebilme
Firewall desteği, SSL güvenli bağlantı
SOCKS4/5 ve HTTP1.1 Proxy desteği
SFTP desteği, Upload/Download Kuyruk desteği
Sürükle ve Bırak ve çoklu dil desteği
Öncelikle önceki sürümü kaldırın, Ccleaner ile temizlik yapıp yeniden başlatın.
Ardından Antivirüs programınızı geçici olarak devredışı bırakın.
Windows 10'da Windows Defender'ı kapatın.
Yönetici olarak çalıştırın.
Katılımsız olduğundan kurulum otomatik olarak kısa bir sürede tamamlanacaktır.

# 32 ve 64 Bit Sürümler Birleştirilmiştir. Sisteminize Uygun Olanı Kurulur.
# Masaüstüne Kısayol Atar.

Windows XP
Windows Vista
Windows 7
Windows 8
Windows 8.1
Windows 10
IObit Pro Pack Katılımsız v1.4 AIO TR Torrent

Genişletmek için Tıkla!
04-06-2017 17:09 , saidemreekazak Tarafından Yüklendi.
Kaynaklar: 4 / İndirilen: 0 / Boyut: 121.45 MB / Tamamlandı: 168
Torrenti İndir  Torrenti Şikayet Et Torrent Tanımı
Kategori: Program

IObit Pro Katılımsız v1.4 Full Paket Türkçe



Bir çok farklı alanda başarılı olduğunu düşündüğümüz Iobit, bilgisayar dostu, faydalı programlarla gönüllerde yer etti.
IObit Pro Pack v1.4 IObit yazılımlarını tek pakette toplayan bir programdır. İçerisinde Sistem bakım, Antivirüs, Driver güncelleme, Program kaldırma, Disk birleştirme gibi yazılımlar bulunmaktadır.

Detaylı bilgi için;

Öncelikle önceki sürümü kaldırın, Ccleaner ile temizlik yapıp yeniden başlatın.
Ardında Antivirüs programınızı geçici olarak devredışı bırakın.
Antivirüs programı kullanmıyorsanız Windows 10 da Windows Defender'ı kapatın.
Yönetici olarak çalıştırın.
Kurulum otomatik olarak tamamlanacaktır.

PAKET İÇERİĞİ

Advanced SystemCare PRO 10.4.0.760
IObit Malware Fighter 5.1.0.3884
IObit Driver Booster Pro 4.4.0.512
IObit Smart Defrag Pro 5.6.0.1078
IObit Uninstaller Pro 6.4.0.2119

Windows XP
Windows Vista
Windows 7
Windows 8
Windows 8.1
Windows 10
Ata Demirer Tek Kişilik Dev Kadro 1 2006 Web-DL MPEG Torrent

Genişletmek için Tıkla!
04-06-2017 15:07 , mronur87 Tarafından Yüklendi.
Kaynaklar: 0 / İndirilen: 0 / Boyut: 1.03 GB / Tamamlandı: 77
Torrenti İndir  Torrenti Şikayet Et Torrent Tanımı
Kategori: Web-DL

Ata Demirer Tek Kişilik Dev Kadro 1 2006 Web-DL MPEG





Ata Demirer, günük hayata dair izlenimlerini, ünlü sanatçılardan çeşitli meslek erbablarına kadar farklı kişilerin özgün tiplemelerini, karakter komedisi ile canlandırarak anlattığı gösterisini keyifle izleyeceksiniz.



Görüntü ID :224 (0xE0)
Biçim :MPEG
Süre :56dk 20s
Genişlik :352 piksel
Yükseklik :288 piksel




Uçurtmayı Vurmasınlar 1989 WEB-DL XviD Torrent

Genişletmek için Tıkla!
04-06-2017 14:37 , mronur87 Tarafından Yüklendi.
Kaynaklar: 4 / İndirilen: 0 / Boyut: 699.93 MB / Tamamlandı: 133
Torrenti İndir  Torrenti Şikayet Et Torrent Tanımı Tanıtım Videosu
IMDB Puanı: 8.5 8.5/10
Kategori: Türk Filmi
http://www.imdb.com/title/tt0098573/

Uçurtmayı Vurmasınlar 1989 WEB-DL XviD





Bir hikâyeyi çocukların gözüyle anlatmak sinemacıların sıkça başvurduğu bir yöntemdir. Eğer sinema bir hayal perdesiyse, yeri geldiğinde kurallarını büyüklerin koyduğu gerçek dünyanın anlamsızlığından da dem vurması gerekir. Bunu çocuklardan iyi kim yapabilir?Sinemamızın zaman içerisinde en beğenilmiş (ve şüphesiz en çok mendil ıslatmış) filmlerinden ikisi, Teyzem veUçurtmayı Vurmasınlar da aynı yöntemi kullanır. Ümit Ünal’ın senaryosundan Halit Refiğ’in sinemaya aktardığıTeyzem’in başkarakteri Müjde Ar’ın canlandırdığı Üftade’dir ama hikâyeyi yeğeni Umur’dan dinleriz. Ailesi başta olmak üzere yakın çevresi tarafından delirmeye terk edilen Üftade’yi sadece yeğeni anlamaya çalışır. Emekli astsubay üvey babasının baskısı ve tacizleri Üftade için hayatı bir nevi hapishaneye dönüştürmüştür ama kimse ona inanmaz. Kadının odasında dolaşan üvey babanın hayaletini sadece Umur’un görmesi boşuna değildir. Teyzesi daha ilk tanışmalarında onu sadece bir oyun dünyasına değil, evdeki otoriteye karşı bir ittifaka da çağırmıştır.Tunç Başaran imzalı Uçurtmayı Vurmasınlar’da ise anlatıcı bir yetişkindir ama başkarakter çocuktur. Bu kez sembolik bir hapishane söz konusu değildir; film kadınlar koğuşunda geçer. Annesiyle beraber hapis hayatı yaşayan beş yaşındaki Barış’ın en yakın arkadaşı siyasi suçlu İnci’dir. Filmin anlatısı, tahliye olduktan sonra İnci’nin Barış’la ilgili anılarını hatırlaması üzerine kuruludur ama merkezde hep çocuğun olan biteni nasıl algıladığı yer alır. Hapishane avlusuna tebeşirle çizilen bir uçurtmanın neden uçmadığını soran Barış’ın naifliği, gökyüzündeki bir uçurtmayı vurmaya çalışan hapishanedeki otoritenin saçmalığını da ortaya çıkartır.İki filmi birbirine yaklaştıran bir diğer unsur ise hem Umur hem de Barış’ın darbe dönemi çocuğu olmasıdır. 12 Mart’ın hemen ertesinde başlayan Teyzem, hikâyesinin geçtiği dönemden çok, çekildiği zamanın (1986) duygusunu, çaresizliğini yansıtır. Umur, geriye dönüp bakınca teyzesini kurtaramamanın üzüntüsünü taşır. Film bu yüzden karamsardır. Bir “12 Eylül filmi” olan Uçurtmayı Vurmasınlar çekildiği sırada ise ülkede sıkıyönetim sona ermiştir. Belki de bu yüzden Başaran’ın filmi, içerdiği tüm hüzne rağmen, geleceğe dair umutludur

Bit oranı :1 031 kb/s
Genişlik :512 piksel
Yükseklik :384 piksel
Görüntü en-boy oranı :4:3
Kare hızı :25.000 kare/s
Renk alanı :YUV Krom altörnekleme :4:2:0
Bit yoğunluğu :8 bit



Eşkiya 1996 Web-DL x264 AAC Torrent

Genişletmek için Tıkla!
04-06-2017 13:56 , mronur87 Tarafından Yüklendi.
Kaynaklar: 3 / İndirilen: 0 / Boyut: 448.57 MB / Tamamlandı: 54
Torrenti İndir  Torrenti Şikayet Et Torrent Tanımı
Kategori: Web-DL

Eşkiya 1996 Web-DL x264 AAC




35 yıl önce Cudi dağlarında bir grup eşkıya jandarma tarafından yakalanır. 35 yıl içinde eşkıyaların hepsi ya hastalıktan ya da bölgedeki hesaplaşmalardan ötürü can vermiştir. Biri dışında; Baran...Baran 35 yıl sonra hapisten çıkınca ilk işi köyüne dönmek olur. Ama doğduğu topraklar şimdi baraj suları altındadır. Geçmişin izlerini sürmeye başlayan Eşkıya, yıllardır bilmediği bir gerçeği öğrenir. Hapse düşmesine en yakın arkadaşının ihaneti neden olmuştur. Bu arkadaş Eşkıya Baran'in çocukluk aşkını, Keje’yi satın alarak İstanbul’a kaçmıştır. Eşkıya ne İstanbul’u ne de arkadaşının adresini bilmemektedir. Tren'de, Tarlabaşı'nın arka sokaklarında büyümüş, pavyon, kumarhane, uyuşturucu muhabbetinin içinde yaşayan Cumali adlı genç bir adamla tanışır. Onla birlikte İstanbul'a gider ve kendisinin derdinin yanında bir de Cumali'nin derdiyle uğraşmaya başlar. İstanbul ve bu karanlık sokaklar adım adım sevdiği kadın Keje ye yaklaştırır Eşkıya'yı....


Süre :2 s 2dk
Düşük bit oranı :476 kb/s
Genişlik :640 piksel
Yükseklik :320 piksel
Görüntü en-boy oranı :2.000
Kare hız modu :Sabit
Kare hızı :25.000 kare/s
Renk alanı :YUV
Krom altörnekleme :4:2:0
Bit yoğunluğu :8 bit



Vatanım Sensin Bölüm 30 720p WebDL AAC h264 Torrent

Genişletmek için Tıkla!
04-06-2017 01:57 , UtkuGARIP Tarafından Yüklendi.
Kaynaklar: 3 / İndirilen: 0 / Boyut: 1.36 GB / Tamamlandı: 99
Torrenti İndir  Torrenti Şikayet Et Torrent Tanımı
Kategori: Web-DL

Vatanım Sensin Bölüm 30 720p WebDL AAC h264





Genişlet PHP:


Format 
Matroska at 1 615 kb/s
Length 
1.36 GiB for 2 s 0dk 13s 161 ms
Video 
#0 : AVC at 1 500 kb/s
Aspect 1280 x 720 (1.778at 25.000 fps
Audio 
#0 : AAC at 125 kb/s
Infos 2 kanal48.0 kHz
Language 
tr






Tom Clanys Ghost Recon Wallpapers Torrent

Genişletmek için Tıkla!
03-06-2017 15:09 , DariusRz Tarafından Yüklendi.
Kaynaklar: 1 / İndirilen: 0 / Boyut: 235.28 MB / Tamamlandı: 73
Torrenti İndir  Torrenti Şikayet Et Torrent Tanımı
Kategori: Resim

Bu Wallpaper pack Uplay üzerinden inidirilip NOVA ailesi icin sunulmustur


umarim begenirsiniz her ekrana göre boyut mevcut
Dirilis ''Ertugrul'' Bolum 89 1080p WebRip x264 NOVA Torrent

Genişletmek için Tıkla!
02-06-2017 21:55 , DariusRz Tarafından Yüklendi.
Kaynaklar: 3 / İndirilen: 0 / Boyut: 2.53 GB / Tamamlandı: 342
Torrenti İndir  Torrenti Şikayet Et Torrent Tanımı
Kategori: Web-DL

Dirilis ''Ertugrul'' Bolum 89 1080p WebRip x264 NOVA
Format : Matroska at 2 492 kb/s
Length : 2.53 GiB for 2 s 25dk 19s 776 ms
Video #0 : AVC at 2 298 kb/s
Aspect : 1920 x 1080 (1.778) at 25.000 fps
Audio #0 : AC-3 at 192 kb/s
Infos : 2 kanal, 48.0 kHz
Logan Wolverine 2017 DUAL TR-EN DD Web-DL h264 Torrent

Genişletmek için Tıkla!
02-06-2017 18:48 , UtkuGARIP Tarafından Yüklendi.
Kaynaklar: 4 / İndirilen: 0 / Boyut: 3.38 GB / Tamamlandı: 304
Torrenti İndir  Torrenti Şikayet Et Torrent Tanımı Tanıtım Videosu
IMDB Puanı: 8.3 8.3/10
Kategori: Web-DL
http://www.imdb.com/title/tt3315342/

Logan: Wolverine 2017 DUAL TR-EN DD Web-DL h264







Türkçe Altyazı
English Subtitle
English Subtitle (Hearing Impaired)



Yakın gelecekte yaşlanmış ve yorgun olan Wolverine ve Professor X, Meksika sınırında saklanmaktadır. Fakat Logan'ın dünyadan gizlenmesi ve mirası, karanlık güçler tarafından takip edilen genç bir mutant geldiğinde sona erer. Şimdi Wolverine'de genç bir kadın klonunu Nathanial Essex'in liderliğindeki kötü bir organizasyondan korumalıdır.
Hugh Jackman'ı son kez Wolverine olarak gördüğümüz film Logan'ı James Mangold yönetiyor. Başrollerinde ise Hugh Jackman dışında Boyd Holbrook, Patrick Stewart ve Doris Morgado yer alıyor.



Genişlet PHP:


Format 
Matroska at 3 526 kb/s
Length 
3.38 GiB for 2 s 17dk 24s 416 ms
Video 
#0 : AVC at 2 500 kb/s
Aspect 1920 x 808 (2.376at 23.976 fps
Audio 
#0 : AC-3 at 384 kb/s
Infos 6 kanal48.0 kHz
Language 
tr
Audio 
#1 : AC-3 at 640 kb/s
Infos 6 kanal48.0 kHz
Language 
en
Text 
#0 : UTF-8
Language tr
Text 
#1 : UTF-8
Language tr
Text 
#2 : UTF-8
Language en






T2 Trainspotting 2017 1080p BluRay DTS DUAL TR ENG x264 NOVA Torrent

Genişletmek için Tıkla!
02-06-2017 14:13 , TURKNOVA Tarafından Yüklendi.
Kaynaklar: 7 / İndirilen: 0 / Boyut: 11.35 GB / Tamamlandı: 201
Torrenti İndir  Torrenti Şikayet Et Torrent Tanımı Tanıtım Videosu
IMDB Puanı: 7.4 7.4/10
Kategori: BluRay 1080p
Anonim Yükleyicihttp://www.imdb.com/title/tt2763304/

T2 Trainspotting 2017 1080p BluRay DTS DUAL TR ENG x264 NOVA

Mark Renton'ın (Ewan McGregor) arkadaşlarıyla birlikte kazandığı parayı alıp kaçmasının ardından 20 yıl geçmiştir. Bazı sağlık sorunları yaşayan Renton, uzun süredir yaşadığı Amsterdam'dan Edinburgh'a geri döner. Burada eski arkadaşları, küçük çaplı düzenbazlıklarla yolunu bulan, ayrıca bir bar işleten Simon ve eroin bağımlığından tam olarak kurtulamamış, intiharın eşiğindeki Spud ile bir araya gelir. Geri dönüşüne ikisinin de verdiği tepkiler farklıdır, ancak asıl sorunlar 20 yıldır hapiste olan Begbie'nin ortaya çıkmasıyla başlayacaktır.
Irvine Welsh'in Porno romanından uyarlanan film, hikaye ve karakterler anlamında Trainspotting'in devam filmi niteliğini taşıyor.

Format : Matroska at 13.8 Mb/s
Length : 11.3 GiB for 1 s 57dk 22s 48 ms
Video #0 : AVC at 11.2 Mb/s
Aspect : 1920 x 1040 (1.846) at 23.976 fps
Audio #0 : AC-3 at 640 kb/s
Infos : 6 kanal, 48.0 kHz
Language : tr
Audio #1 : DTS at 1 920 kb/s / 1 509 kb/s
Infos : 6 kanal, 48.0 kHz
Language : en

T2 Trainspotting 2017 720p BluRay DTS DUAL TR ENG x264 NOVA Torrent

Genişletmek için Tıkla!
02-06-2017 14:13 , TURKNOVA Tarafından Yüklendi.
Kaynaklar: 4 / İndirilen: 0 / Boyut: 6.74 GB / Tamamlandı: 166
Torrenti İndir  Torrenti Şikayet Et Torrent Tanımı Tanıtım Videosu
IMDB Puanı: 7.4 7.4/10
Kategori: BluRay 720p
Anonim Yükleyicihttp://www.imdb.com/title/tt2763304/

T2 Trainspotting 2017 720p BluRay DTS DUAL TR ENG x264 NOVA

Mark Renton'ın (Ewan McGregor) arkadaşlarıyla birlikte kazandığı parayı alıp kaçmasının ardından 20 yıl geçmiştir. Bazı sağlık sorunları yaşayan Renton, uzun süredir yaşadığı Amsterdam'dan Edinburgh'a geri döner. Burada eski arkadaşları, küçük çaplı düzenbazlıklarla yolunu bulan, ayrıca bir bar işleten Simon ve eroin bağımlığından tam olarak kurtulamamış, intiharın eşiğindeki Spud ile bir araya gelir. Geri dönüşüne ikisinin de verdiği tepkiler farklıdır, ancak asıl sorunlar 20 yıldır hapiste olan Begbie'nin ortaya çıkmasıyla başlayacaktır.
Irvine Welsh'in Porno romanından uyarlanan film, hikaye ve karakterler anlamında Trainspotting'in devam filmi niteliğini taşıyor.

Format : Matroska at 8 218 kb/s
Length : 6.74 GiB for 1 s 57dk 22s 48 ms
Video #0 : AVC at 5 624 kb/s
Aspect : 1280 x 696 (1.839) at 23.976 fps
Audio #0 : AC-3 at 640 kb/s
Infos : 6 kanal, 48.0 kHz
Language : tr
Audio #1 : DTS at 1 920 kb/s / 1 509 kb/s
Infos : 6 kanal, 48.0 kHz
Language : en

T2 Trainspotting 2017 TR BDRip x264 AC3 NOVA Torrent

Genişletmek için Tıkla!
02-06-2017 14:13 , TURKNOVA Tarafından Yüklendi.
Kaynaklar: 5 / İndirilen: 0 / Boyut: 1.37 GB / Tamamlandı: 214
Torrenti İndir  Torrenti Şikayet Et Torrent Tanımı Tanıtım Videosu
IMDB Puanı: 7.5 7.5/10
Kategori: BRRip-BDRip
Anonim Yükleyicihttp://www.imdb.com/title/tt2763304/

T2 Trainspotting 2017 TR BDRip x264 AC3 NOVA

Mark Renton'ın (Ewan McGregor) arkadaşlarıyla birlikte kazandığı parayı alıp kaçmasının ardından 20 yıl geçmiştir. Bazı sağlık sorunları yaşayan Renton, uzun süredir yaşadığı Amsterdam'dan Edinburgh'a geri döner. Burada eski arkadaşları, küçük çaplı düzenbazlıklarla yolunu bulan, ayrıca bir bar işleten Simon ve eroin bağımlığından tam olarak kurtulamamış, intiharın eşiğindeki Spud ile bir araya gelir. Geri dönüşüne ikisinin de verdiği tepkiler farklıdır, ancak asıl sorunlar 20 yıldır hapiste olan Begbie'nin ortaya çıkmasıyla başlayacaktır.
Irvine Welsh'in Porno romanından uyarlanan film, hikaye ve karakterler anlamında Trainspotting'in devam filmi niteliğini taşıyor.

Format : Matroska at 1 668 kb/s
Length : 1.37 GiB for 1 s 57dk 22s 48 ms
Video #0 : AVC at 1 474 kb/s
Aspect : 720 x 392 (1.837) at 23.976 fps
Audio #0 : AC-3 at 192 kb/s
Infos : 2 kanal, 48.0 kHz
Language : tr

Logan 2017 TR BRRip XviD Torrent

Genişletmek için Tıkla!
02-06-2017 08:52 , erdaldemir20 Tarafından Yüklendi.
Kaynaklar: 16 / İndirilen: 3 / Boyut: 1.27 GB / Tamamlandı: 836
Torrenti İndir  Torrenti Şikayet Et Torrent Tanımı Tanıtım Videosu
IMDB Puanı: 8.3 8.3/10
Kategori: BRRip-BDRip
http://www.imdb.com/title/tt3315342/

Logan 2017 TR BRRip XviD

Yakın gelecekte, yorgun savaşçı Logan'ın önem verdiği tek şey hastalanan Profesör X'i Meksika hududunda gizlemekti. Ancak Logan'ın dünyadan ve kendi efsanesinden saklanma gayreti, karanlık güçler tarafından izleyen genç bir Mutant'ın gelişiyle biter
General
Unique ID : 176467806826474690420587774781087388142 (0x84C2769D5E34B1708AEB02616FF591EE)
Complete name : C:\Users\ErdaL DemiR\Desktop\Logan 2017 TR BRRip XviD.mkv
Format : Matroska
Format version : Version 4 / Version 2
File size : 1.27 GiB
Duration : 2h 17mn
Overall bit rate : 1 319 Kbps
Encoded date : UTC 2017-06-02 05:39:17
Writing application : mkvmerge v8.8.0 ('Wind at my back') 32bit
Writing library : libebml v1.3.3 + libmatroska v1.4.4
DURATION : 02:17:23.304000000
NUMBER_OF_FRAMES : 343471
NUMBER_OF_BYTES : 131892864
_STATISTICS_WRITING_APP : mkvmerge v8.8.0 ('Wind at my back') 32bit
_STATISTICS_WRITING_DATE_UTC : 2017-06-02 05:39:17
_STATISTICS_TAGS : BPS DURATION NUMBER_OF_FRAMES NUMBER_OF_BYTES
Video
ID : 1
Format : MPEG-4 Visual
Format profile : Advanced Simple@L5
Format settings, BVOP : 2
Format settings, QPel : No
Format settings, GMC : No warppoints
Format settings, Matrix : Default (H.263)
Muxing mode : Packed bitstream
Codec ID : V_MS/VFW/FOURCC / XVID
Codec ID/Hint : XviD
Duration : 2h 17mn
Bit rate : 1 165 Kbps
Width : 720 pixels
Height : 304 pixels
Display aspect ratio : 2.35:1
Frame rate mode : Constant
Frame rate : 23.976 fps
Color space : YUV
Chroma subsampling : 4:2:0
Bit depth : 8 bits
Scan type : Progressive
Compression mode : Lossy
Bits/(Pixel*Frame) : 0.222
Stream size : 1.12 GiB (88%)
Writing library : XviD 66
Default : Yes
Forced : No
Audio
ID : 2
Format : MPEG Audio
Format version : Version 1
Format profile : Layer 3
Mode : Joint stereo
Mode extension : MS Stereo
Codec ID : A_MPEG/L3
Codec ID/Hint : MP3
Duration : 2h 17mn
Bit rate mode : Constant
Bit rate : 128 Kbps
Channel(s) : 2 channels
Sampling rate : 48.0 KHz
Compression mode : Lossy
Stream size : 126 MiB (10%)
Default : Yes
Forced : No
Yasam Kuru A Cure for Wellness 2016 1080p BluRay DUAL TR ENG x264 DTS NOVA Torrent

Genişletmek için Tıkla!
01-06-2017 22:20 , TURKNOVA Tarafından Yüklendi.
Kaynaklar: 4 / İndirilen: 1 / Boyut: 11.04 GB / Tamamlandı: 143
Torrenti İndir  Torrenti Şikayet Et Torrent Tanımı Tanıtım Videosu
IMDB Puanı: 6.5 6.5/10
Kategori: BluRay 1080p
Anonim Yükleyicihttp://www.imdb.com/title/tt4731136/

Yasam Kuru A Cure for Wellness 2016 1080p BluRay DUAL TR ENG x264 DTS NOVA
İşinde yükselme hırsıyla dolu genç Lockhart (Dane DeHaan), çalıştığı şirketin uzun zamandır tedavide olan CEOsu Bay Pembrokeu geri getirmek üzere İsviçre Alplerindeki bir tedavi merkezine gönderilir. Burada huzur içinde yaşarmış, gizemli bir hastalıktan arınıyormuş gibi görünen insanlar aslında sıradan bir kaplıcadan çok daha fazlası olan bu merkezin büyük bir sırrını örtmektedirler. Lockhart buradan hemen ayrılmak istese de bu kolay olmayacaktır, nitekim o da bu gizemli hastalığa yakalanmıştır ve bir kez hastalığa yakalananların oradan ayrılması mümkün değildir.
Format : Matroska at 10.8 Mb/s
Length : 11.0 GiB for 2 s 26dk 33s 440 ms
Video #0 : AVC at 8 999 kb/s
Aspect : 1920 x 1080 (1.778) at 23.976 fps
Audio #0 : AC-3 at 448 kb/s
Infos : 6 kanal, 48.0 kHz
Language : tr
Audio #1 : DTS at 1 509 kb/s
Infos : 7 kanal / 6 kanal, 48.0 kHz
Language : en
Yasam Kuru A Cure for Wellness 2016 720p BluRay DUAL TR ENG x264 DTS NOVA Torrent

Genişletmek için Tıkla!
01-06-2017 22:20 , TURKNOVA Tarafından Yüklendi.
Kaynaklar: 3 / İndirilen: 0 / Boyut: 8.06 GB / Tamamlandı: 59
Torrenti İndir  Torrenti Şikayet Et Torrent Tanımı Tanıtım Videosu
IMDB Puanı: 6.5 6.5/10
Kategori: BluRay 720p
Anonim Yükleyicihttp://www.imdb.com/title/tt4731136/

Yasam Kuru A Cure for Wellness 2016 720p BluRay DUAL TR ENG x264 DTS NOVA
İşinde yükselme hırsıyla dolu genç Lockhart (Dane DeHaan), çalıştığı şirketin uzun zamandır tedavide olan CEOsu Bay Pembrokeu geri getirmek üzere İsviçre Alplerindeki bir tedavi merkezine gönderilir. Burada huzur içinde yaşarmış, gizemli bir hastalıktan arınıyormuş gibi görünen insanlar aslında sıradan bir kaplıcadan çok daha fazlası olan bu merkezin büyük bir sırrını örtmektedirler. Lockhart buradan hemen ayrılmak istese de bu kolay olmayacaktır, nitekim o da bu gizemli hastalığa yakalanmıştır ve bir kez hastalığa yakalananların oradan ayrılması mümkün değildir.
Format : Matroska at 7 872 kb/s
Length : 8.06 GiB for 2 s 26dk 33s 440 ms
Video #0 : AVC at 5 999 kb/s
Aspect : 1280 x 720 (1.778) at 23.976 fps
Audio #0 : AC-3 at 448 kb/s
Infos : 6 kanal, 48.0 kHz
Language : tr
Audio #1 : DTS at 1 509 kb/s
Infos : 7 kanal / 6 kanal, 48.0 kHz
Language : en
Yasam Kuru A Cure for Wellness 2016 BDRip TR x264 NOVA Torrent

Genişletmek için Tıkla!
01-06-2017 22:20 , DariusRz Tarafından Yüklendi.
Kaynaklar: 4 / İndirilen: 0 / Boyut: 3.25 GB / Tamamlandı: 123
Torrenti İndir  Torrenti Şikayet Et Torrent Tanımı Tanıtım Videosu
IMDB Puanı: 6.5 6.5/10
Kategori: BRRip-BDRip
http://www.imdb.com/title/tt4731136/

Yasam Kuru A Cure for Wellness 2016 BDRip TR x264 NOVA
İşinde yükselme hırsıyla dolu genç Lockhart (Dane DeHaan), çalıştığı şirketin uzun zamandır tedavide olan CEOsu Bay Pembrokeu geri getirmek üzere İsviçre Alplerindeki bir tedavi merkezine gönderilir. Burada huzur içinde yaşarmış, gizemli bir hastalıktan arınıyormuş gibi görünen insanlar aslında sıradan bir kaplıcadan çok daha fazlası olan bu merkezin büyük bir sırrını örtmektedirler. Lockhart buradan hemen ayrılmak istese de bu kolay olmayacaktır, nitekim o da bu gizemli hastalığa yakalanmıştır ve bir kez hastalığa yakalananların oradan ayrılması mümkün değildir.
Format : Matroska at 3 175 kb/s
Length : 3.25 GiB for 2 s 26dk 33s 472 ms
Video #0 : AVC at 3 000 kb/s
Aspect : 720 x 408 (1.777) at 23.976 fps
Audio #0 : AC-3 at 192 kb/s
Infos : 6 kanal, 48.0 kHz
Language : tr
Crysis 2 Maximum Edition 2011 Torrent

Genişletmek için Tıkla!
01-06-2017 22:08 , TURKNOVA Tarafından Yüklendi.
Kaynaklar: 7 / İndirilen: 0 / Boyut: 7.78 GB / Tamamlandı: 179
Torrenti İndir  Torrenti Şikayet Et Torrent Tanımı
Kategori: Oyun
Anonim Yükleyici

Crysis 2 Maximum Edition 2011




Crysis 2 Maxsimum Edition PC, Yeni arayüzle 2023 yılını konu alan efsane oyunlardan biri Crysis 2 Maximum Edition içerdiği dlc packlar ile tam anlamıyla aksiyon ve macera
bir arada Crysis 2 Maxsimum limited edition,Crysis 2 Maxsimum Edition retaliation,Crysis 2 decimtion dahil.



Minimum Sistem Gereksinimleri;
İşletim Sistemi: Windows Xp/Vista/7/8
İşlemci: Core 2 Duo 2 GHz
RAM: 2 GB RAM (4 GB RAM – Vista/7)
GPU: 512 MB (GeForce 8800GT ya da üstü)
HDD: 12GB



Oyun kontrol edilmemiştir. İstek torrenttir.



Benim Adım Feridun 2016 TR Web-DL H.264 AAC Torrent

Genişletmek için Tıkla!
01-06-2017 17:46 , UtkuGARIP Tarafından Yüklendi.
Kaynaklar: 10 / İndirilen: 0 / Boyut: 1.12 GB / Tamamlandı: 655
Torrenti İndir  Torrenti Şikayet Et Torrent Tanımı Tanıtım Videosu
IMDB Puanı: 5.3 5.3/10
Kategori: Web-DL
http://www.imdb.com/title/tt6229652/

Benim Adım Feridun 2016 TR Web-DL H.264 AAC









Uzun süreli bir ilişkinin içindeki Ersan artık sevgilisine ilgi göstermeyi ve romantik olmayı bırakmıştır. Uzun ilişkinin rahatlığının keyfini süren adam günün birinde uzun süreli sevgilisi Ayla tarafında terk edilince sudan çıkmış balığa döner. Birkaç hafta boyunca sevdiği kadını geri kazanmaya çalışsa da sonuç nafiledir. Ayla geri dönmeyi kabul etmez. Bunun üzerine artık ayrılığı kabullenmesi gerektiğini anlayan Ersan farklı bir yerin iyi geleceği umuduyla uzun zamandır gitmediği Erdek'teki çocukluğunun geçtiği eve gider. Ancak burada da aradığı teselliyi bulamayan Ersan sahilde dolaşırken yakınlarda bir düğün olduğunu fark eder. Bir şeyler için çıkma düşüncesiyle düğüne giren Ersan, düğündeki damadın babası tarafından yıllar önce küsüp Almanya’ya yerleşen kardeşinin oğlu Feridun sanılır. İlk başta bu rolden memnun olan Ersan ilk fırsatta kaçarım diye düşünürken damadın kuzeni Hayal’i görür. Geceyle birlikte ilginç ve komik olaylar da bir bir başına gelecektir..
Çağan Irmak'ın hem yönetmenliğini hem de senaristliğini üstlendiği filmin başrollerinde Halil Sezai, Büşra Pekin ve Tarık Pabuçcuoğlu yer alırken filmin kadrosunda Suzan Aksoy, Güngör Bayrak, Kadriye Kenter, Defne Yalnız ve Özge Borak yer alıyor.



Genişlet PHP:


Format 
Matroska at 1 541 kb/s
Length 
1.12 GiB for 1 s 43dk 43s 880 ms
Video 
#0 : AVC at 1 500 kb/s
Aspect 1280 x 720 (1.778at 25.000 fps
Audio 
#0 : AAC at 96.0 kb/s
Infos 2 kanal44.1 kHz
Language 
tr






Party Hard 1.4.028 Remastered Tüm DLC'ler 2015 SKIDROW Torrent

Genişletmek için Tıkla!
01-06-2017 14:42 , UtkuGARIP Tarafından Yüklendi.
Kaynaklar: 1 / İndirilen: 0 / Boyut: 1.09 GB / Tamamlandı: 18
Torrenti İndir  Torrenti Şikayet Et Torrent Tanımı Tanıtım Videosu
IMDB Puanı: 7.5 7.5/10
Kategori: Oyun
http://www.imdb.com/title/tt5202550/

Party Hard 1.4.028: Remastered Tüm DLC'ler 2015 SKIDROW





Party Hard, yüksek sesli partilerden artık bıkmış bir komşu olarak, partiye katılıp herkesi öldürmeyi istiyorsunuz. Öldüreceksiniz öldürmesine de bunu yaparken polisleri peşinize takmamak için hiçbir görgü tanığı bırakmamanız gerekiyor. İnsanları öldürmenin benzersiz yolları vardır, bunu yaparken sessiz olmalı ve işinizi çabuk bitirmelisiniz. Bir dizi cinayet işleyecek ve bu cinayetlerden paçayı kurtarmaya çalışacaksınız. Party Hard 2D grafikleri ile oynayabileceğiniz eğlenceli bir oyun.



İşletim Sistemi: Windows XP/7/8/10
İşlemci: 1.4 Ghz ve üstü
Bellek: 1 GB RAM
Ekran Kartı: 128 MB
Sabit Disk: 1 GB kullanılabilir alan



İndirdiğiniz klasörün içindeki "PartyHardGame.exe" dosyasına çift tıklayarak oynamaya başlayabilirsiniz.





İsimsizler Bolum 10 720p Web-Rip x264 AC3 NOVA Torrent

Genişletmek için Tıkla!
01-06-2017 13:58 , DariusRz Tarafından Yüklendi.
Kaynaklar: 4 / İndirilen: 0 / Boyut: 1.81 GB / Tamamlandı: 206
Torrenti İndir  Torrenti Şikayet Et Torrent Tanımı
Kategori: Web-DL

İsimsizler Bolum 10 720p Web-Rip x264 AC3 NOVA
Format : Matroska at 1 992 kb/s
Length : 1.81 GiB for 2 s 9dk 50s 608 ms
Video #0 : AVC at 1 798 kb/s
Aspect : 1280 x 720 (1.778) at 23.976 fps
Audio #0 : AC-3 at 192 kb/s
Infos : 2 kanal, 48.0 kHz
Askın Kupası Cup of Love 2016 TR HDRip XviD Torrent

Genişletmek için Tıkla!
01-06-2017 01:14 , erdaldemir20 Tarafından Yüklendi.
Kaynaklar: 4 / İndirilen: 0 / Boyut: 1.28 GB / Tamamlandı: 178
Torrenti İndir  Torrenti Şikayet Et Torrent Tanımı Tanıtım Videosu
IMDB Puanı: 5.0 5.0/10
Kategori: HD TV
http://www.imdb.com/title/tt5105666/

Askın Kupası Cup of Love 2016 TR HDRip XviD
Zoe Walker, bin yıllara hitap eden bir kahve lezzeti tasarlamak üzere Kolombiya’ya gönderilen bir gıda bilim uzmanıdır. Salento köyünde, Zoe ilk başta onunla çalışmak istemeyen yerel plantasyon sahibi Diego Valdez ile görüşür ancak Zoe’nin son hasat için ona yardım ettiği sürece kahve çekirdeklerini kullanmasına izin verir. Zoe, Diego’yla arazide çalışırken, romantizm başlar.
General
Complete name : C:\Users\ErdaL DemiR\Desktop\Askın Kupası - Cup of Love 2016 TR HDRip.XviD.avi
Format : AVI
Format/Info : Audio Video Interleave
Format profile : OpenDML
File size : 1.28 GiB
Duration : 1h 30mn
Overall bit rate : 2 012 Kbps
Writing application : Lavf55.12.100
Video
ID : 1
Format : MPEG-4 Visual
Format profile : Advanced Simple@L5
Format settings, BVOP : 2
Format settings, QPel : No
Format settings, GMC : No warppoints
Format settings, Matrix : Default (H.263)
Muxing mode : Packed bitstream
Codec ID : FMP4
Duration : 1h 30mn
Bit rate : 1 806 Kbps
Width : 720 pixels
Height : 400 pixels
Display aspect ratio : 16:9
Frame rate : 23.976 fps
Color space : YUV
Chroma subsampling : 4:2:0
Bit depth : 8 bits
Scan type : Progressive
Compression mode : Lossy
Bits/(Pixel*Frame) : 0.261
Stream size : 1.15 GiB (90%)
Writing library : XviD 66
Audio
ID : 0
Format : MPEG Audio
Format version : Version 1
Format profile : Layer 3
Codec ID : 55
Codec ID/Hint : MP3
Duration : 1h 30mn
Bit rate mode : Constant
Bit rate : 192 Kbps
Channel(s) : 2 channels
Sampling rate : 44.1 KHz
Compression mode : Lossy
Stream size : 125 MiB (10%)
Alignment : Aligned on interleaves
Interleave, duration : 42 ms (1.00 video frame)
Bir Hawai Ruyasi A Midsummer's Hawaiian Dream 2016 WEBRip XviD Torrent

Genişletmek için Tıkla!
31-05-2017 20:18 , erdaldemir20 Tarafından Yüklendi.
Kaynaklar: 4 / İndirilen: 0 / Boyut: 1.01 GB / Tamamlandı: 96
Torrenti İndir  Torrenti Şikayet Et Torrent Tanımı Tanıtım Videosu
IMDB Puanı: 5.7 5.7/10
Kategori: Web-DL
http://www.imdb.com/title/tt6060234/

Bir Hawai Ruyasi A Midsummer's Hawaiian Dream 2016 WEBRip XviD

Avukat Tanya McQueen, antropologlardan oluşan bir ekibin bulunması halinde, Nick Button’un Kaua’i üzerindeki Hemolele Ormanı’ndaki alışveriş merkezinin gelişmesini durduracak eski bir eser bulmak için görevlendirdi. Ekip, deneyimli ikili Helen ve Demetri’nin yanısıra, lisansüstü öğrencileri Zander ve Hermione tarafından yönetiliyor. Takım Omaka, yerli bir Hawai kahunası ve onun yaramaz yardımcısı Puka tarafından görüldü.
General
Complete name : C:\Users\ErdaL DemiR\Desktop\Bir Hawai Ruyasi - A Midsummer's Hawaiian Dream 2016 WEBRip.XviD.avi
Format : AVI
Format/Info : Audio Video Interleave
Format profile : OpenDML
File size : 1.01 GiB
Duration : 1h 18mn
Overall bit rate : 1 831 Kbps
Movie name : .
Writing application : Lavf57.57.100
Video
ID : 0
Format : MPEG-4 Visual
Format profile : Simple@L3
Format settings, BVOP : No
Format settings, QPel : No
Format settings, GMC : No warppoints
Format settings, Matrix : Default (H.263)
Codec ID : XVID
Codec ID/Hint : XviD
Duration : 1h 18mn
Bit rate : 1 686 Kbps
Width : 720 pixels
Height : 406 pixels
Display aspect ratio : 16:9
Original display aspect ratio : 16:9
Frame rate : 25.000 fps
Color space : YUV
Chroma subsampling : 4:2:0
Bit depth : 8 bits
Scan type : Progressive
Compression mode : Lossy
Bits/(Pixel*Frame) : 0.231
Stream size : 952 MiB (92%)
Writing library : XviD 67
Audio
ID : 1
Format : MPEG Audio
Format version : Version 1
Format profile : Layer 3
Codec ID : 55
Codec ID/Hint : MP3
Duration : 1h 18mn
Bit rate mode : Constant
Bit rate : 128 Kbps
Channel(s) : 2 channels
Sampling rate : 48.0 KHz
Compression mode : Lossy
Stream size : 72.3 MiB (7%)
Alignment : Aligned on interleaves
Interleave, duration : 24 ms (0.60 video frame)
Interleave, preload duration : 24 ms
Yasam Kürü A Cure for Wellness 2016 TR BRRip XviD Torrent

Genişletmek için Tıkla!
31-05-2017 17:15 , erdaldemir20 Tarafından Yüklendi.
Kaynaklar: 5 / İndirilen: 0 / Boyut: 1.3 GB / Tamamlandı: 397
Torrenti İndir  Torrenti Şikayet Et Torrent Tanımı Tanıtım Videosu
IMDB Puanı: 6.5 6.5/10
Kategori: BRRip-BDRip
http://www.imdb.com/title/tt4731136/

Yasam Kürü A Cure for Wellness 2016 TR BRRip XviD

Hırslı genç bir yöneticiye şirketin CEO'su alma görevi verilir. Mevzubahis CEO İsviçre Alpleri'nin ıssız bir bölgesinde yer alan, huzurlu fakat gizemli bir sıhhatli hayat merkezinde kalmaktadır. Ancak genç yönetici orada geçirdiği müddet zarfında merkezin spasının mucizevi rehabilitasyonlarının pek de göründüğü gibi olmadığından şüphelenmeye başlar. Merkezin korkutucu sırlarını keşfetmeye başladığında ise akıl sıhhati tehlikeye girecektir. Sırları çözmeye çalışan genç adam kendini bir anda o merkezde rehabilitasyon emeliyle yatan hastalarla aynı hastalık teşhisine sahip bir halde bulur...
General
Complete name : C:\Users\ErdaL DemiR\Desktop\Yasam Kürü - A Cure for Wellness 2016 TR BRRip.XviD.avi
Format : AVI
Format/Info : Audio Video Interleave
File size : 1.30 GiB
Duration : 2h 26mn
Overall bit rate : 1 271 Kbps
Writing application : VirtualDubMod 1.5.10.2 (build 2542/release)
Writing library : VirtualDubMod build 2542/release
Video
ID : 0
Format : MPEG-4 Visual
Format profile : Advanced Simple@L5
Format settings, BVOP : 2
Format settings, QPel : No
Format settings, GMC : No warppoints
Format settings, Matrix : Default (H.263)
Muxing mode : Packed bitstream
Codec ID : XVID
Codec ID/Hint : XviD
Duration : 2h 26mn
Bit rate : 1 133 Kbps
Width : 720 pixels
Height : 400 pixels
Display aspect ratio : 16:9
Frame rate : 23.976 fps
Color space : YUV
Chroma subsampling : 4:2:0
Bit depth : 8 bits
Scan type : Progressive
Compression mode : Lossy
Bits/(Pixel*Frame) : 0.164
Stream size : 1.16 GiB (89%)
Writing library : XviD 66
Audio
ID : 1
Format : MPEG Audio
Format version : Version 1
Format profile : Layer 3
Mode : Joint stereo
Mode extension : MS Stereo
Codec ID : 55
Codec ID/Hint : MP3
Duration : 2h 26mn
Bit rate mode : Constant
Bit rate : 128 Kbps
Channel(s) : 2 channels
Sampling rate : 48.0 KHz
Compression mode : Lossy
Stream size : 134 MiB (10%)
Alignment : Split accross interleaves
Interleave, duration : 42 ms (1.00 video frame)
Interleave, preload duration : 500 ms
The Wizard of Lies Yalanlar Büyücüsü 2017 720p WEB DL TR-ENG DUAL x264 Torrent

Genişletmek için Tıkla!
31-05-2017 14:16 , erdaldemir20 Tarafından Yüklendi.
Kaynaklar: 8 / İndirilen: 1 / Boyut: 1.46 GB / Tamamlandı: 279
Torrenti İndir  Torrenti Şikayet Et Torrent Tanımı Tanıtım Videosu
IMDB Puanı: 7.1 7.1/10
Kategori: Web-DL
http://www.imdb.com/title/tt1933667/

The Wizard of Lies Yalanlar Büyücüsü 2017 720p WEB DL DUAL TR-ENG x264
Amerika'yı geçmiş yıllarda birbirine katan milyarder dolandırıcı Bernie Madoff’u canlandıran usta oyuncu Robert De Niro'ya Michelle Pfeiffer eşlik ediyor.
Format : Matroska
Format version : Version 4 / Version 2
File size : 1.46 GiB
Duration : 2h 12mn
Overall bit rate : 1 574 Kbps
Encoded date : UTC 2017-05-30 13:07:02
Writing application : mkvmerge v11.0.0 ('Alive') 64bit
Writing library : libebml v1.3.4 + libmatroska v1.4.5
DURATION : 02:12:40.704000000
NUMBER_OF_FRAMES : 248772
NUMBER_OF_BYTES : 191056896
_STATISTICS_WRITING_APP : mkvmerge v11.0.0 ('Alive') 64bit
_STATISTICS_WRITING_DATE_UTC : 2017-05-30 13:07:02
_STATISTICS_TAGS : BPS DURATION NUMBER_OF_FRAMES NUMBER_OF_BYTES
Video
ID : 1
Format : AVC
Format/Info : Advanced Video Codec
Format profile : Main@L3.1
Format settings, CABAC : Yes
Format settings, ReFrames : 2 frames
Format settings, GOP : M=1, N=25
Codec ID : V_MPEG4/ISO/AVC
Duration : 2h 12mn
Bit rate : 1 159 Kbps
Width : 1 280 pixels
Height : 720 pixels
Display aspect ratio : 16:9
Frame rate mode : Constant
Frame rate : 23.976 fps
Color space : YUV
Chroma subsampling : 4:2:0
Bit depth : 8 bits
Scan type : Progressive
Bits/(Pixel*Frame) : 0.052
Stream size : 1.07 GiB (74%)
Default : Yes
Forced : No
Audio #1
ID : 2
Format : AC-3
Format/Info : Audio Coding 3
Mode extension : CM (complete main)
Format settings, Endianness : Big
Codec ID : A_AC3
Duration : 2h 12mn
Bit rate mode : Constant
Bit rate : 192 Kbps
Channel(s) : 2 channels
Channel positions : Front: L R
Sampling rate : 48.0 KHz
Compression mode : Lossy
Stream size : 182 MiB (12%)
Title : .
Language : Turkish
Default : Yes
Forced : No
Audio #2
ID : 3
Format : AC-3
Format/Info : Audio Coding 3
Mode extension : CM (complete main)
Format settings, Endianness : Big
Codec ID : A_AC3
Duration : 2h 12mn
Bit rate mode : Constant
Bit rate : 192 Kbps
Channel(s) : 2 channels
Channel positions : Front: L R
Sampling rate : 48.0 KHz
Compression mode : Lossy
Stream size : 182 MiB (12%)
Title : .
Language : English
Default : No
Forced : No
Eskiya Dunyaya Hukumdar Olmaz Sezon Finali Bolum 71 720p HDTV x264 NOVA Torrent

Genişletmek için Tıkla!
31-05-2017 04:33 , Hiro5005 Tarafından Yüklendi.
Kaynaklar: 10 / İndirilen: 0 / Boyut: 2.07 GB / Tamamlandı: 440
Torrenti İndir  Torrenti Şikayet Et Torrent Tanımı
Kategori: HD TV

Eskiya Dunyaya Hukumdar Olmaz Sezon Finali Bolum 71 720p HDTV x264 NOVA
*********************************************
*********************************************
General : C:\Users\Hiro5005\Desktop\Eskiya.Dunyaya.Hukumdar.Olmaz.Sezon.Finali.Bolum.71.720p.HDTV.x264.NOVA.mkv
Format : Matroska at 2 167 Kbps
Length : 2.07 GiB for 2s 16dk 32s 579ms
Video #0 : AVC
Aspect : 1280 x 720 (1.778) at 25.000 fps
Audio #0 : AAC
Infos : 2 kanal, 44.1 KHz
*********************************************
*********************************************
IObit Malware Fighter Pro 5.1.0.3884 KATILIMSIZ Torrent

Genişletmek için Tıkla!
31-05-2017 02:16 , saidemreekazak Tarafından Yüklendi.
Kaynaklar: 1 / İndirilen: 0 / Boyut: 39.52 MB / Tamamlandı: 137
Torrenti İndir  Torrenti Şikayet Et Torrent Tanımı
Kategori: Program

IObit Malware Fighter Pro 5.1.0.3884




IObit Malware Fighter, derinlere gizlenmiş malware ve spyware'leri tespit eden ve kaldıran bir programdır.
IObit Malware Fighter potansiyel spyware, adware, trojans, keyloggers, bots, solucanların tehditlerine karşı bilgisayarınızı korur. En karmaşık zararlı yazılımlara karşı hızlı ve etkili bir çözüm sunan program ayrıca Türkçe arayüze sahiptir.

İyi gizlenmiş tehditleri bulur
Geliştirilmiş gerçek zamanlı koruma
Tek tık ile kolay kullanım
Diğer antivirüs yazılımlarıyla uyumluluk
Arkaplanda otomatik çalışma
Otomatik ve sık güncelleme


Antivirüs programını kapatın.

Eğer antivirüs programı yoksa Windows 10'da Windows Defender’ı yükleme bitene kadar

devredışı bırakın.

İndirdiğiniz klasör içinde bulunan

IObit Malware Fighter Pro 5.1.0.3884.exe

Dosyasını ‘’Yönetici olarak’’ çalıştırın.

Kurulum kısa bir süre içinde tamamlanacaktır, bekleyin.


# Kurulumdan Önce Eski Sürümü Kaldırıp Sistemi Yeniden Başlatmanız Gerekmektedir.
# 21.05.2018'e Kadar Lisanslıdır.


Windows XP
Windows Vista
Windows 7
Windows 8
Windows 8.1
Windows 10

Auslogics File Recovery 7.1.3.0 Katılımsız Torrent

Genişletmek için Tıkla!
31-05-2017 02:01 , saidemreekazak Tarafından Yüklendi.
Kaynaklar: 1 / İndirilen: 0 / Boyut: 7.47 MB / Tamamlandı: 138
Torrenti İndir  Torrenti Şikayet Et Torrent Tanımı
Kategori: Program

Auslogics File Recovery 7.1.3.0





Auslogics File Recovery; sistem hataları, virüs saldırıları veya kullanıcı hatasıyla yanlışlıkla silinen dosyaları kurtarmak için kullanılan basit ve etkili bir veri kurtarma programıdır. File Recovery çeşitli sebeplerle bilgisayarınızdan silinen dosyaların kurtarılma ihtimallerini de hesaplayarak size zaman kazandıran bir programdır.

Auslogics File Recovery dosya kurtarma programıyla kurtarılan dosyalarınızı silindikleri eski dizine veya bilgisayarınızdaki farklı bir konuma kaydedebilirsiniz. Müzik dosyalarını, fotoğrafları, program dosyalarını ve diğer dosyaları File Recovery ile geri yükleyebilirsiniz. Ayrıca virüslerin ve casus yazılımların sebep olduğu veri kayıplarını yine bu programla giderebilirsiniz. Programın gelişmiş arama özelliği ile kurtarılan dosyalar arasında tarihe, dosya adına, dosya boyutuna ve türüne göre arama yapabilecek ve aradığınız dosyaya kolayca ulaşabileceksiniz.

Veri kurtarma aşamasında silinen tüm dosyaların tamamen kurtarılması mümkün değildir. Bu program size silinen dosyaların kurtarılma ihtimallerini gösterir, kurtarılma ihtimali düşük olanları kısmi olarak kurtarır. Format attıktan sonra da kurtarmak istediğiniz eski dosyanın üzerine yenisi kaydedilmediyse File Recovery size bu dosyaları listeler. Listelenen dosyalar yazılım tarafından kurtarılabilir.


Antivirüs programını kapatın.

Eğer antivirüs programı yoksa Windows 10'da Windows Defender’ı yükleme bitene kadar

devredışı bırakın.

İndirdiğiniz klasör içinde bulunan

Auslogics File Recovery 7.1.3.0.exe

Dosyasını ‘’Yönetici olarak’’ çalıştırın.

Kurulum kısa bir süre içinde tamamlanacaktır, bekleyin.


Windows XP
Windows Vista
Windows 7
Windows 8
Windows 8.1
Windows 10

Nero 2017 Micro Lite 18.0.06100 Katılımsız Torrent

Genişletmek için Tıkla!
31-05-2017 01:36 , saidemreekazak Tarafından Yüklendi.
Kaynaklar: 6 / İndirilen: 0 / Boyut: 44.69 MB / Tamamlandı: 332
Torrenti İndir  Torrenti Şikayet Et Torrent Tanımı
Kategori: Program

Nero 2017 Micro Lite 18.0.06100 Katılımsız




Nero (bilinen en bariz özelliğiyle), kendi zevkiniz ve tercihinize göre veri, müzik, fotoğraf ve daha birçok formatta CD ve DVD'ler yakmanıza/oluşturmanıza yardımcı bir bilgisayar yazılımıdır.
Aynı zamanda
medya dosyalarını yönetmek için yararlanabileceğiniz kapsamlı bir programdır.




Antivirüs programınızı kapatın, Windows 10'da defender'ı yükleme bitene kadar devredışı bırakın.
İndirdiğiniz klasörde bulunan Nero 2017 Micro Lite 18.0.06100.exe programını çalıştırın.

Kısa bir süre içinde Nero Micro Lite 2017 yüklemesi tamamlanacaktır.


# Ultra Sıkıştırma Yapılmıştır.
# Orijinal Kurulum Dosyaları Kullanılarak Hazırlanmıştır.
# Crack Dosyaları Kuruluma Entegre Edilmiştir.
# Sağ Tik Nero İle Yak Kapatılmıştır.
# İstatistik Gönderimi, Güncelleştirmeler vs Kapalıdır.
# Masaüstüne Kısayol Atar.
# Programın Çalışması İçin Sisteminizde Bu Paketin
Kurulu Olması Gerekmektedir.

Windows XP
Windows Vista
Windows 7
Windows 8
Windows 8.1
Windows 10

Webroot.Secure.8.0.4.42 Torrent

Genişletmek için Tıkla!
31-05-2017 01:10 , saidemreekazak Tarafından Yüklendi.
Kaynaklar: 1 / İndirilen: 0 / Boyut: 805.7 KB / Tamamlandı: 78
Torrenti İndir  Torrenti Şikayet Et Torrent Tanımı
Kategori: Program

Webroot SecureAnywere 8.4.0.42

Webroot, tüketiciler ve işletmeler için internet güvenliği hizmeti sağlayan şirket. 1997 yılında kurulan Webroot'un merkezi Broomfield'de olmakla birlikte San Mateo,San Diego, Almanya, Avustralya, Avusturya, İngiltere, İrlanda ve Japonya'da ofisleri bulunmaktadır.




Özellikle ülkemizde özel kuruluşlu bir banka ile anlaşması olan bu yazılım internet ortamında bankacılık işlemleri yapanlar için koruma sağlıyor.

Ram tüketimi çok az olduğundan, düşük sistem özelliklerine sahip bilgisayarlar için biçilmiş kaftan denebilir.
Bulut tabanlı bir antivirüs programıdır.


Kurulumla ilgili bilgi dosya içerisinde mevcuttur.



Windows XP
Windows Vista
Windows 7
Windows 8
Windows 8.1
Windows 10

Ucuz Roman Pulp Fiction 1994 TRSub Blu-ray 1080p DTS x264 Torrent

Genişletmek için Tıkla!
30-05-2017 22:58 , monalisa Tarafından Yüklendi.
Kaynaklar: 3 / İndirilen: 0 / Boyut: 10.92 GB / Tamamlandı: 86
Torrenti İndir  Torrenti Şikayet Et Torrent Tanımı Tanıtım Videosu
IMDB Puanı: 8.9 8.9/10
Kategori: BluRay 1080p
http://www.imdb.com/title/tt0110912/

Ucuz Roman Pulp Fiction 1994 TRSub Blu-ray 1080p DTS x264
Ucuz Roman, Quentin Tarantino yönetmenliğindeki Roger Avary ile birlikte yazılmış, 1994 yapımı, kült kabul edilen bir filmdir. Ucuz Roman, En İyi Film dahil 7 dalda Oscar'a aday gösterilmiş ve En İyi Orijinal Senaryo Oscarı'nı almıştır.
Format : Matroska at 10.1 Mb/s
Length : 10.9 GiB for 2 h 34 min 24 s 758 ms
Video #0 : AVC at 8 605 kb/s
Aspect : 1920 x 816 (2.353) at 23.976 fps
Audio #0 : DTS at 1 509 kb/s
Infos : 6 channels, 48.0 kHz
Language : en
Text #0 : UTF-8
Language : en
Text #1 : UTF-8
Language : da
Text #2 : UTF-8
Language : nl
Text #3 : UTF-8
Language : fi
Text #4 : UTF-8
Language : fr
Text #5 : UTF-8
Language : de
Text #6 : ASS
Text #7 : UTF-8
Language : hu
Text #8 : UTF-8
Language : **
Text #9 : UTF-8
Language : no
Text #10 : VobSub
Language : pl
Text #11 : UTF-8
Language : pt
Text #12 : UTF-8
Language : ro
Text #13 : UTF-8
Language : ru
Text #14 : UTF-8
Language : es
Text #15 : UTF-8
Language : es
Text #16 : UTF-8
Language : sv
Text #17 : UTF-8
Language : tr
Sihirbazlar Çetesi Now You See Me 1-2 BluRay Boxset 720p DUAL x264 AC3 Torrent

Genişletmek için Tıkla!
30-05-2017 22:18 , OburiX Tarafından Yüklendi.
Kaynaklar: 6 / İndirilen: 2 / Boyut: 11.81 GB / Tamamlandı: 206
Torrenti İndir  Torrenti Şikayet Et Torrent Tanımı Tanıtım Videosu
IMDB Puanı: 7.3 7.3/10
Kategori: BluRay 720p
http://www.imdb.com/title/tt1670345/

Sihirbazlar Çetesi Now You See Me 1-2 BluRay Boxset 720p DUAL x264 AC3
Now You Se Me 2013 Theatrical Cut versiyondur.



İzleyenlerin nefesini kesen ve toplumun hayranlığını kazandıkları Robin Hood stili gösterilerinin ardından bir sene geçmiştir. Atlılar çetesi geri dönüşünü müjdeleyen gösteri ile kaçmanın onlar için çocuk oyuncağından farksız olduğunu kanıtlayacaktır. J. Daniel Atlas, Merritt McKinney, Jack Wilder ve grubun yeni üyesi Lula ile birlikte, yeni gösterilerini Owen Case’i ifşa etme umuduyla sergilerler. Bu sefer FBI özel ajanı Dylan Rhodes’un da yardımını almışlardır fakat Rhodes'un ekibe katılımı gösteri öncesi ifşa olur; ve planlar geri teper. İtibarlarını geri kazanmka isteyen Atlılar kariyerlerinin en zorlu soygunu ile karşı karşıya kalacaklardır...

İlki 2013 yılında seyircisiyle buluşan ve ilüzyon marifetiyle çok başarılı bir soygun/intikam hikayesini konu alan suç gerilimi Sihirbazlar Çetesi'nin devamı olan filmin yönetmenliğini Jon M. Chu üstleniyor. Kadroda ilk filmden J. Daniel Atlas olarak tanıdığımız Jesse Eisenberg'e Mark Ruffalo, Dave Franco, Woody Harrelson, Lizzy Caplan ve Michael Caine eşlik ediyor.

:Now.You.See.Me. Sihirbazlar.Cetesi.(2013).Theatrical.Cut.720p.BluRay.x264.DTS.DUAL.mkv
Biçim :Matroska
Biçim sürümü :Version 4 / Version 2
Dosya boyutu :6.00 GiB
Süre :1s 55dk
Kapsamlı bit oranı :7 447 Kbps
Görüntü
ID :1
Biçim :AVC
Biçim/Bilgi :Advanced Video Codec
Biçim profili :High@L4.1
Biçim ayarları, CABAC :Evet
Biçim ayarları, ReFrames :4 kare
Kodek ID :V_MPEG4/ISO/AVC
Süre :1s 55dk
Bit oranı :5 750 Kbps
Genişlik :1 280 piksel
Yükseklik :534 piksel
Kare hızı :23.976 kare/s
Ses #1
ID :2
Biçim DTS
Biçim/Bilgi Digital Theater Systems
Kip :16
Biçim ayarları, Endianess :Big
Kodek ID :A_DTS
Süre :1s 55dk
Bit oranı modu :Sabit
Bit oranı :1 509 Kbps
Kanal :6 kanal
Kanal konumları :Front: L C R, Side: L R, LFE
Örnekleme oranı :48.0 KHz
Dil :İngilizce
Default :Evet
Forced :Hayır
Ses #2
ID :3
Biçim :AC-3
Biçim/Bilgi :Audio Coding 3
Kip uzantısı :CM (complete main)
Biçim ayarları, Endianess :Big
Kodek ID :A_AC3
Süre :1s 55dk
Bit oranı :192 Kbps
Kanal :2 kanal
Kanal konumları :Front: L R
Örnekleme oranı :48.0 KHz

Now.You.See.Me.Sihirbazlar.Cetesi.2016.720p.BluRay.DUAL.x264-OburiX.mkv
Biçim :Matroska
Biçim sürümü :Version 4 / Version 2
Dosya boyutu :5.81 GiB
Süre :2s 9dk
Kapsamlı bit oranı :6 438 Kbps
Görüntü
ID :1
Biçim :AVC
Biçim/Bilgi :Advanced Video Codec
Biçim profili :High@L4.1
Biçim ayarları, CABAC :Evet
Biçim ayarları, ReFrames :5 kare
Kodek ID :V_MPEG4/ISO/AVC
Süre :2s 9dk
Bit oranı :5 413 Kbps
Genişlik :1 280 piksel
Yükseklik :536 piksel
Kare hızı :23.976 kare/s
Başlık :Encoding-OburiX
Ses #1
ID :2
Biçim :AC-3
Biçim/Bilgi :Audio Coding 3
Kodek ID :A_AC3
Süre :2s 9dk
Bit oranı :640 Kbps
Kanal :6 kanal
Kanal konumları :Front: L C R, Side: L R, LFE
Örnekleme oranı :48.0 KHz
Sıkıştırma kipi :Kayıplı
Akış boyutu :592 MiB (10%)
Başlık :Eng-OburiX
Dil :İngilizce
Ses #2
ID :3
Biçim :AC-3
Biçim/Bilgi :Audio Coding 3
Biçim ayarları, Endianess :Big
Kodek ID :A_AC3
Süre :2s 9dk
Bit oranı modu :Sabit
Bit oranı :384 Kbps
Kanal :6 kanal
Akış boyutu :355 MiB (6%)
Başlık :TR- OburiX


Lego Batman Filmi The Lego Batman Movie 2017 DUAL 1080p WEB-DL h264 AC3 Torrent

Genişletmek için Tıkla!
30-05-2017 17:17 , UtkuGARIP Tarafından Yüklendi.
Kaynaklar: 7 / İndirilen: 0 / Boyut: 3.83 GB / Tamamlandı: 245
Torrenti İndir  Torrenti Şikayet Et Torrent Tanımı Tanıtım Videosu
IMDB Puanı: 7.5 7.5/10
Kategori: Web-DL
http://www.imdb.com/title/tt4116284/

Lego Batman Filmi The Lego Batman Movie 2017 DUAL 1080p WEB-DL h264 AC3








Türkçe Altyazı
English Subtitle



Sakin ve durağan bir hayat süren Batman kocaman evinde tembellik ederken yeni yardımcıları Robin ve Batgirl'ün ortaya çıkmasıyla işler değişir. Ekip henüz birbirine alışamadan Joker'in hain bir planla Gotham'ı tehdit ettiği haberi duyulunca, taze ekip birleşmek zorunda kalacaktır. Batman'in artık sadece kendinden değil, evlat edindiği oğlundan da sorumlu olması işleri daha da zorlaştırır..
Başarılı animasyon Lego Filmi'nin Batman'li spin off'u olan projede yönetmen koltuğuna Chris McKay otururken, senaryo Seth Grahame-Smith'e ait.



Genişlet PHP:


Format 
Matroska at 5 249 kb/s
Length 
3.83 GiB for 1 s 44dk 28s 143 ms
Video 
#0 : AVC at 4 478 kb/s
Aspect 1912 x 792 (2.414at 23.976 fps
Audio 
#0 : AC-3 at 384 kb/s
Infos 6 kanal48.0 kHz
Language 
en
Audio 
#1 : AC-3 at 384 kb/s
Infos 6 kanal48.0 kHz
Language 
tr
Text 
#0 : UTF-8
Language en
Text 
#1 : UTF-8
Language tr






İçerde Bolum 36 Sansursuz 1080p WEBRip x264 AC3 NOVA Torrent

Genişletmek için Tıkla!
30-05-2017 12:50 , DariusRz Tarafından Yüklendi.
Kaynaklar: 5 / İndirilen: 0 / Boyut: 2.04 GB / Tamamlandı: 359
Torrenti İndir  Torrenti Şikayet Et Torrent Tanımı
Kategori: Web-DL

İçerde Bolum 36 Sansursuz 1080p WEBRip x264 AC3 NOVA
Format : Matroska at 2 185 kb/s
Length : 2.04 GiB for 2 s 13dk 56s 512 ms
Video #0 : AVC at 2 000 kb/s
Aspect : 1920 x 1080 (1.778) at 23.976 fps
Audio #0 : AC-3 at 192 kb/s
Infos : 2 kanal, 48.0 kHz
Söz Bolum 09 720p HDTV x264 AC3 NOVA Torrent

Genişletmek için Tıkla!
30-05-2017 00:27 , Hiro5005 Tarafından Yüklendi.
Kaynaklar: 6 / İndirilen: 0 / Boyut: 2.05 GB / Tamamlandı: 366
Torrenti İndir  Torrenti Şikayet Et Torrent Tanımı
Kategori: HD TV

Söz Bolum 09 720p HDTV x264 AC3 NOVA
*********************************************
*********************************************
General : C:\Users\Hiro5005\Desktop\Söz.Bolum.09.720p.HDTV.x264.AC3.NOVA.mkv
Format : Matroska at 2 150 Kbps
Length : 2.05 GiB for 2s 16dk 47s 713ms
Video #0 : AVC
Aspect : 1280 x 720 (1.778) at 25.000 fps
Audio #0 : AAC
Infos : 2 kanal, 44.1 KHz
*********************************************
*********************************************
Shadow Defender 1.4.0.636 EN-TR Katılımsız Torrent

Genişletmek için Tıkla!
29-05-2017 23:51 , saidemreekazak Tarafından Yüklendi.
Kaynaklar: 3 / İndirilen: 0 / Boyut: 3.27 MB / Tamamlandı: 77
Torrenti İndir  Torrenti Şikayet Et Torrent Tanımı
Kategori: Program

Shadow Defender 1.4.0.636 EN-TR Katılımsız



Shadow Defender sisteminizi ‘Shadow Mode’ adında sanal ortamda çalıştırabilen bir modu mevcut. ‘Shadow Mode’ her sistem değişikliğini gerçek ortamda değişiklik yapmadan sanal ortamda değiştirmekte. Eğer bir kötü amaçlı aktivite gerçekleşirse bilgisayarınızı eski konumuna getirmek üzere tekrar başlatmaktadır. Yani kısacası deepfreeze vazifesi görür.


Antivirüs programını kapatın.

Eğer antivirüs programı yoksa Windows Defender’ı yükleme bitene kadar

devredışı bırakın.

İndirdiğiniz klasör içinde bulunan

Shadow Defender 1.4.0.636.exe

Dosyasını ‘’Yönetici olarak’’ çalıştırın.

Kurulum tamamlandı yazısını görene kadar bekleyin.




#Program Lisans Sorunları Çözülmüştür.
#Kurulumdan Sonra İlk Yeniden Başlatmanızda Lisanslama Yapılır ve Program Aktif Edilir.
#Sistem Diliniz Türkçeyse Türkçe Dil Paketi Yüklenir.

Windows XP
Windows Vista
Windows 7
Windows 8
Windows 8.1
Windows 10

Mozilla Firefox 53.0.3 Final Torrent

Genişletmek için Tıkla!
29-05-2017 21:52 , saidemreekazak Tarafından Yüklendi.
Kaynaklar: 1 / İndirilen: 0 / Boyut: 68.67 MB / Tamamlandı: 107
Torrenti İndir  Torrenti Şikayet Et Torrent Tanımı
Kategori: Program

Mozilla Firefox 53.0.3 Final Katılımsız


Mozilla Firefox'un uzun yıllardır ülkemizdeki en çok tercih edilen web tarayıcılardan birisi olduğu kesin. Tarayıcının sahip olduğu temiz ve anlaşılır arayüz, web sitelerini oldukça hızlı bir şekilde açması ve eklenti desteği sayesinde bu popülerlik daha uzun zaman kaybolmayacak gibi görünüyor. Zira piyasada güçlü alternatifleri olsa da Firefox'un kendisine bağlı bir kullanıcı kitlesi yaratmayı başardığı aşikar.

Antivirüs programını kapatın.
Eğer antivirüs programı yoksa Windows Defender’ı yükleme bitene kadar
devredışı bırakın.
İndirdiğiniz klasör içinde bulunan
Mozilla Firefox 53.0.3.exe
Dosyasını ‘’Yönetici olarak’’ çalıştırın.
Kurulum tamamlandı yazısını görene kadar bekleyin.
Firefox'un Öne Çıkan Özellikleri:
Düzenlenebilir Sekmeler
Gruplanabilir Sekmeler
Firefox Sync ile Senkronizasyon
Firefox Butonu
Geliştirilmiş Güvenlik
Çökme Koruması
3D Web


#32 ve 64 Bit Sürümler Birleştirilip Ultra Sıkıştırma Yapılmıştır.
#Adguard Eklentisi Eklenmiştir Eklentilere Girip Aktif Edebilirsiniz.
Windows XP
Windows Vista
Windows 7
Windows 8
Windows 8.1
Windows 10
Google Chrome 58.0.3029.110 KATILIMSIZ Torrent

Genişletmek için Tıkla!
29-05-2017 20:40 , saidemreekazak Tarafından Yüklendi.
Kaynaklar: 3 / İndirilen: 0 / Boyut: 94.38 MB / Tamamlandı: 157
Torrenti İndir  Torrenti Şikayet Et Torrent Tanımı
Kategori: Program

Google Chrome 58.0.3029.110 Katılımsız



Google Chrome web sayfalarını ve uygulamaları yıldırım hızıyla çalıştırır. Google'a özel, sade ama kullanışlı tasarım ve özellikler bu tarayıcıda da ön plana çıkıyor.

Oldukça basit ve temiz bir arayüz ile karşımıza çıkan Google Chrome, internette daha hızlı, daha kolay ve daha güvenli gezinmeniz için tasarlanmış.


Antivirüs programını kapatın.

Eğer antivirüs programı yoksa Windows Defender’ı yükleme bitene kadar

devredışı bırakın.

İndirdiğiniz klasör içinde bulunan

Google Chrome 58.0.3029.110.exe

Dosyasını ‘’Yönetici olarak’’ çalıştırın.

Kurulum tamamlandı yazını sağ alt köşede görene kadar bekleyin.



#AdGuard Reklam Engelleyici Yazılımının 2.5.11 Sürümü Entegre Edilmiştir. (Sağ Üstten Aktif Edebilir Veya Silebilirsiniz.)
#Program Files'e Kurulum Yapılır. Sisteminizde Başka Bir Chrome Varsa Kaldırmanıza Gerek Yoktur.
#Güncellemeler Aktif Edilmiştir Fakat Otomatik Denetlemesi Kapatılmıştır.
#32 ve 64 Bit Sürümleri Birleştirilmiştir Sisteminize Uygun Olanı Kurulur.

Windows XP
Windows Vista
Windows 7
Windows 8
Windows 8.1
Windows 10

Picasa 3.9.0.141.303 Torrent

Genişletmek için Tıkla!
29-05-2017 20:15 , saidemreekazak Tarafından Yüklendi.
Kaynaklar: 2 / İndirilen: 0 / Boyut: 13.04 MB / Tamamlandı: 131
Torrenti İndir  Torrenti Şikayet Et Torrent Tanımı
Kategori: Program

Picasa 3.9.0.141.303


Estetik olarak Windows Fotoğraf Görüntüleyicisinden daha hoş ve daha kullanışlıdır.

Picasa:

Herkesçe bilinen ve dünya çapında insanların severek kullandığı fotoğraf düzenleme programlarından bir tanesi. Hem kapsamlı diyebileceğimiz nitelikte hem de ücretsiz olması da buna yol açan sebeplerden.

İlk olarak 2002'de kurulan Picasa'yı, bir süre sonra Google satın alıp ücretsiz bir program olarak insanların kullanımına sundu. İlk çıktığı günden beri pek çok değişim geçiren ve günden güne daha kullanışlı hale gelen Picasa, kullanması en kolay fotoğraf düzenleme programlarından birisi. Bu kolaylık, sunduğu pek çok düzenleme seçeneği ile de birleşince ortaya güzel bir fotoğraf uygulaması çıkıyor. Picasa ile fotoğraflarınızı düzenlemek için harcadığınız süreyi bir anda yarıya düşürebilirsiniz.

Picasa'yı Photoshop veya Gimp gibi programlardan ayıran en önemli özelliği basit olması ve kullanıcı dostu bir arayüze sahip olması. Ne diğer fotoğraf düzenleme programları kadar karmaşık ne de Paint kadar basit olan Picasa, tam ortada bir yerde olduğu için de çok seviliyor


İndirdiğiniz klasör içinde bulunan

picasa39-setup.exe

Dosyasını ‘’Yönetici olarak’’ çalıştırın.

Tercihinize göre adımları tamamlayın.



Windows XP
Windows Vista
Windows 7
Windows 8
Windows 8.1
Windows 10

7-Zip 16.04 Final Katılımsız Torrent

Genişletmek için Tıkla!
29-05-2017 19:58 , saidemreekazak Tarafından Yüklendi.
Kaynaklar: 3 / İndirilen: 0 / Boyut: 2.82 MB / Tamamlandı: 107
Torrenti İndir  Torrenti Şikayet Et Torrent Tanımı
Kategori: Program

7-ZIP 16.04 Final Katılımsız


7-Zip açık kaynak kodlu bir yazılım. Kullanımı kolay ve basit arayüze sahip bu program dosya sıkıştırma programları arasında en popüler alternatiflerden biri. Ücretsiz olmasıyla dikkat çeken programda hertürlü sıkıştırma özelliğini bulabileceksiniz. Kodların büyük bölümü GNU LGPL lisansı altında.

7-Zip'i istediğiniz her bilgisayarda üzerinde ücret ve kayıt gerekmeden kullanabilirsiniz.

7-Zip Genel Özellikleri:

Yüksek sıkıştırma oranı ile yeni 7z formatıyla LZMA ve LMZA2 sıkıştırması yapabilirsiniz
Desteklenen Formatlar:
Paketleme / Açma: 7z, XZ, BZIP2, GZIP, TAR, ZIP ve WIM
Sadece Açma: ARJ, CAB, CHM, CPIO, CramFS, DEB, DMG, FAT, HFS, ISO, LZH, LZMA, MBR, MSI, NSIS, NTFS, RAR, RPM, SquashFS, UDF, VHD, WIM, XAR ve Z.
ZIP ve GZIP formatları için 7-Zip PKZip ve WinZip programlarındaki oranlara göre 2-10% kadar daha iyi oran sağlıyor.
7z formatı için Self-extracting kapasitesi
Windows Shell entegrasyonu
Güçlü bir dosya yöneticisi
Güçlü bir komut satırı versiyonu
FAR Manager için eklenti desteği
79 Tane Dil Desteği


Antivirüs programını kapatın.

Eğer antivirüs programı yoksa Windows Defender’ı yükleme bitene kadar

devredışı bırakın.

İndirdiğiniz klasör içinde bulunan

7-Zip 16.04 Final.exe

Dosyasını ‘’Yönetici olarak’’ çalıştırın.

Kurulum tamamlandı yazısını görene kadar bekleyin.



#Sisteminize Uygun Olanı Kurulur.
#Gereksiz Sağ Tik Menuler Kapatılmıştır..

Windows XP
Windows Vista
Windows 7
Windows 8
Windows 8.1
Windows 10

Apowersoft Phone Manager 2.8.7 Torrent

Genişletmek için Tıkla!
29-05-2017 19:21 , saidemreekazak Tarafından Yüklendi.
Kaynaklar: 4 / İndirilen: 0 / Boyut: 51.03 MB / Tamamlandı: 146
Torrenti İndir  Torrenti Şikayet Et Torrent Tanımı
Kategori: Program

Apowersoft Phone Manager 2.8.7


Apowersoft Phone Manager ile Telefonunuz ve Bilgisayarınız Arasında Dosya Trasnferi ve Yedekleme İşlemlerini Yapabilirsiniz

Apowersoft Phone Managerya da Türkçe adıylaApowersoft Telefon Yöneticisi kullanıcılara akıllı telefonları ve bilgisayarları arasında kolayca dosya transferi yapabilme imkanı veren bir telefon yönetme programı.

Bilgisayarlarınıza tamamen ücretsiz olarak indirip yararlanabileceğiniz bir yazılım olan Apowersoft Phone Manager'ı aynı zamanda bir telefon yedekleme programı olarak da kullanabiliyorsunuz. Program temel olarak Android işletim sistemini kullanan akıllı telefonunuz veya iOS işletim sistemini kullanan iPhone telefonunuz arasında bir köprü oluyor ve bilgisayarınız üzerinden kolayca bu cihazları yönetmenizi mümkün kılıyor. Program ile telefonunuzun içindeki dosyalara göz atabilir, telefonunuza dosya atabilir veya telefonunuzdaki dosyaları bilgisayarınıza aktarabilirsiniz. Bunun yanında fotoğraf, müzik, video, SMS, rehber gibi önemli verilerinizi Apowersoft Phone Manager aracılığıyla bilgisayarınıza yedekleyebilir ve dilediğiniz zaman geri yükleyebilirsiniz.

Apowersoft Phone Manager ileAndroid dosya transferi ve iOS dosya transfer işlemlerini telefonunuzun kablosuyla gerçekleştirebiliyorsunuz. Android cihazlar için kablosuz dosya transferi imkanı da veriliyor

Bilgisayarınıza indirdiğiniz Apowersoft Phone Manager programını çalıştırın. Program ana ekranında yer alan QR kodunu tanıtmak için telefonunuzda Apowersoft Phone Manager uygulamasını çalıştırın

Apowersoft Phone Manager Android uygulaması ile QR kodunu taratın veya uygulamanın size verdiği onaylama kodunu bilgisayarınızda açık olan Apowersoft Phone Manager programına girerek cihazları eşleştirin

Programın tamamen Türkçe arayüze sahip olması büyük bir artı puan.


Antivirüs programını kapatın.

Eğer antivirüs programı yoksa Windows Defender’ı yükleme bitene kadar

devredışı bırakın.

İndirdiğiniz klasör içinde bulunan

Apowersoft Phone Manager 2.8.7.exe

Dosyasını ‘’Yönetici olarak’’ çalıştırın.

Kurulum tamamlandı yazısını görene kadar bekleyin.



Windows XP
Windows Vista
Windows 7
Windows 8
Windows 8.1
Windows 10

IDM 6.28 Build 11 Trial+Resetter Torrent

Genişletmek için Tıkla!
29-05-2017 18:45 , saidemreekazak Tarafından Yüklendi.
Kaynaklar: 9 / İndirilen: 0 / Boyut: 8.25 MB / Tamamlandı: 417
Torrenti İndir  Torrenti Şikayet Et Torrent Tanımı
Kategori: Program

İnternet Download Manager 6.28 Build 11



İdm indirme hızını 5 kata kadar arttıran, sunucuların tek indirme sınırlandırmalarını geçip paralel olarak indirme yapar.
Her tarayıcıyı desteklediği için tarayıcı farketmeksizin her indirmeyi yapabilirsiniz.

Öncelikle idm'yi kaldırın. Sonra Ccleaner ile temizlik yapın.
Sonra yeniden başlatın.
Ardından dosya içerisinde bulunan
''IDM Kayıt Sıfırlama Tüm Bilgileri Silme''
dosyasına tıklayın. Gelen uyarıya evet deyin.
idman628build11.exe dosyasını kurun.
Bu setup dosyası trial (sınırlı süreli) kullanım sağlayan idm dosyasıdır.
Full veya katılımsız sürümlere nazaran güncelleme alabilen ve patlamayan saf sürüm olduğundan tercih sebebidir.
İçerisindeki resetter sayesinde lisans resetlenmekte ve 30 gün kullanım sağlanmaktadır..
Ve resetter sayesinde her kullanımda ek süre tanımaktadır.
Resetter'i masaüstünde açın.
Trial Reset yazan yere tıklayıp Reset IDM seçin ve her 30 gün bittiğinde tekrarlayın.
Eğer her 30 günde bir resetteri çalıştırmak istemez ve otomatik 30 gün sürekli eklensin isterseniz
Resetter'i Bilgisayarım/C:/ dizinine atın, açın ve ''Automatically'' yazan yere tıklayın.
Eğer direk katılımsız ve full olan versiyonu tercih ederseniz burdaki sunumdan indirebilirsiniz.

Windows XP
Windows Vista
Windows 7
Windows 8
Windows 8.1
Windows 10
Visual C++ Redist Installer 1.0.5 Torrent

Genişletmek için Tıkla!
29-05-2017 18:17 , saidemreekazak Tarafından Yüklendi.
Kaynaklar: 1 / İndirilen: 0 / Boyut: 31.03 MB / Tamamlandı: 81
Torrenti İndir  Torrenti Şikayet Et Torrent Tanımı
Kategori: Program

Visual C++ Redist Installer 1.0.5 Katılımsız


Visual C++ ile geliştirilmiş uygulamarı çalıştırmak için gerekli Visual C++ kütüphanelerini bilgisayarınıza yüklemeye yardımcı olan bir programdır.



İçerikteki Paketler
#Visual C++ Redistributable

2005/2008/2010/2012/2013/2017
#Visual F# 4.1 SDK
#Microsoft Visual Studio 2010 Tools for Office Runtime (x64)
#Old Runtimes Pack


Windows Xp

Windows Vista

Windows 7
Windows 8
Windows 8.1
Windows 10

Opera 45.0.2552.881 Final Katılımsız Torrent

Genişletmek için Tıkla!
29-05-2017 17:48 , saidemreekazak Tarafından Yüklendi.
Kaynaklar: 1 / İndirilen: 0 / Boyut: 83.92 MB / Tamamlandı: 51
Torrenti İndir  Torrenti Şikayet Et Torrent Tanımı
Kategori: Program

Opera Web Tarayıcı 45.0.2552.881 Katılımsız x32-x64

Opera, yenilenen motoru, kullanıcı arayüzü ve özellikleriyle kullanıcılara en hızlı ve gelişmiş internet deneyimini sunmayı hedefleyen alternatif bir web tarayıcısıdır.

En popüler web tarayıcıları arasındaki yerini korumak için altyapısını Chromium ve Blink ile güçlendiren Opera, artık tarayıcı pazarında Chrome, Firefox ve Internet Explorer'a kafa tutabilecek özelliklere sahip.

Opera'yı ilk kez bilgisayarınıza kurup çalıştırdığınız zaman değişimi doğrudan farkedebiliyorsunuz ki zaten tarayıcımızı açar açmaz yeni gelen özellikler bizleri bekliyor. Hızlı Erişim, Pano ve Keşfet adı verilen 3 farklı sekme tamamen kullanıcıların internet deneyimini geliştirmek adına tasarlanmış.

Antivirüs programını kapatın.

Eğer antivirüs programı yoksa Windows Defender’ı yükleme bitene kadar

devredışı bırakın.

İndirdiğiniz klasör içinde bulunan

Opera 45.0.2552.881 Final.exe

Dosyasını ‘’Yönetici olarak’’ çalıştırın.

Kurulum tamamlandı yazını görene kadar bekleyin.



#32 ve 64 Bit Sürümler Birleştirilmiştir Sisteminize Uygun Olanı Kurulur.

Windows 7
Windows 8
Windows 8.1
Windows 10

Turk Mali Bolum 01 1080p Web-Rip x264 AC3 NOVA Torrent

Genişletmek için Tıkla!
29-05-2017 12:54 , DariusRz Tarafından Yüklendi.
Kaynaklar: 3 / İndirilen: 0 / Boyut: 1.98 GB / Tamamlandı: 201
Torrenti İndir  Torrenti Şikayet Et Torrent Tanımı
Kategori: Web-DL

Turk Mali Bolum 01 1080p Web-Rip x264 AC3 NOVA
Format : Matroska at 2 187 kb/s
Length : 1.98 GiB for 2 s 9dk 20s 920 ms
Video #0 : AVC at 1 999 kb/s
Aspect : 1920 x 1080 (1.778) at 23.976 fps
Audio #0 : AC-3 at 192 kb/s
Infos : 2 kanal, 44.1 kHz
Payitaht Abdulhamid Bolum 13 1080p Web-Dl x264 AC3 Torrent

Genişletmek için Tıkla!
29-05-2017 12:45 , monalisa Tarafından Yüklendi.
Kaynaklar: 3 / İndirilen: 0 / Boyut: 2.62 GB / Tamamlandı: 50
Torrenti İndir  Torrenti Şikayet Et Torrent Tanımı
Kategori: Web-DL

Payitaht Abdulhamid Bolum 13 1080p Web-Dl x264 AC3
Payitaht Abdülhamid yayınlanan 13. bölüm fragmanıyla izleyicilerine heyecan seviyesi yüksek dakikalar yaşatacak. Tarih dolu konusuyla izleyicileri ekran başına kilitleyen Payitaht Abdülhamid yeni bölümüyle cuma akşamı ekranlarda olacak. Dizinin yayınlanacak olan yeni bölümünde Sultan Abdülhamid'in hedefinde düşmanın başı var, İngiltere Kraliçesi.
Format : Matroska at 2 700 kb/s
Length : 2.62 GiB for 2 h 19 min 0 s 375 ms
Video #0 : AVC
Aspect : 1920 x 1080 (1.778) at 25.000 fps
Audio #0 : AAC
Infos : 2 channels, 44.1 kHz
Joshua Super Guce Direnen Genc Joshua Teenager vs Superpower 2017 NF Web-Rip 720p TR x264 NOVA Torrent

Genişletmek için Tıkla!
29-05-2017 12:06 , DariusRz Tarafından Yüklendi.
Kaynaklar: 2 / İndirilen: 0 / Boyut: 3.05 GB / Tamamlandı: 65
Torrenti İndir  Torrenti Şikayet Et Torrent Tanımı Tanıtım Videosu
IMDB Puanı: 7.5 7.5/10
Kategori: Web-DL
http://www.imdb.com/title/tt6333072/

Joshua Super Guce Direnen Genc Joshua Teenager vs Superpower 2017 NF Web-Rip 720p TR x264 NOVA
Genc aktivist Joshua Won tarafindan harekete gecirilen Hong Kong`un genc vatandaslari Cin`e karsi ozelliklerini koruma icin sokaklara dokuluyor / DariusRz NETFLIX
Format : Matroska at 5 554 kb/s
Length : 3.05 GiB for 1 s 18dk 45s 280 ms
Video #0 : AVC at 5 450 kb/s
Aspect : 1280 x 720 (1.778) at 23.976 fps
Audio #0 : AC-3 at 192 kb/s
Infos : 2 kanal, 48.0 kHz
Language : tr
Kor Ember 2016 Sansürsüz 720p WEBRip Xvid Torrent

Genişletmek için Tıkla!
28-05-2017 13:06 , UtkuGARIP Tarafından Yüklendi.
Kaynaklar: 5 / İndirilen: 0 / Boyut: 992.49 MB / Tamamlandı: 335
Torrenti İndir  Torrenti Şikayet Et Torrent Tanımı Tanıtım Videosu
IMDB Puanı: 6.4 6.4/10
Kategori: Web-DL
http://www.imdb.com/title/tt5599818/

Kor Ember 2016 Sansürsüz 720p WEBRip Xvid









Kocası Cemal'in Romanya'ya kaçak işçi olarak gitmesinin ardından evde giysi dikerek geçimini sağlayan Emine, bir giyim atölyesinde eski patronu Ziya ile karşılaşır. Ziya, Emine'nin durumunu görüp ona yardım eli uzatır; bu arada ikilinin arasındaki ilişkinin seyri de değişir. Ancak bir süre sonra Cemal, Romanya'dan döner. Üç kişinin de hayatı dönüşü olmayacak şekilde değişecektir.
Yönetmenliğini ve senaristliğini Zeki Demirkubuz'un üstlendiği Kor, "aşkın ve ihanetin gayya kuyusu"nu beyazperdeye taşıyor. Filmin başrollerinde Aslıhan Gürbüz, Taner Birsel, Caner Cindoruk ve İştar Gökseven yer alırken kadroda kendilerine Çağlar Çorumlu, Dolunay Soysert, Talha Yayıkçı ve Berat Özdemir de eşlik ediyor.





Genişlet PHP:


Format 
Matroska at 1 279 kb/s
Length 
992 MiB for 1 s 48dk 28s 85 ms
Video 
#0 : MPEG-4 Visual at 1 082 kb/s
Aspect 1280 x 720 (1.778at 23.976 fps
Audio 
#0 : MPEG Audio at 192 kb/s
Infos 2 kanal44.1 kHz
Language 
tr






Tek Çare Kazanmak Win It All 2017 TR NF 2160p WebRip x264 AC3 TrollUHD [NOVA] Torrent

Genişletmek için Tıkla!
28-05-2017 12:22 , TURKNOVA Tarafından Yüklendi.
Kaynaklar: 1 / İndirilen: 0 / Boyut: 45.85 GB / Tamamlandı: 38
Torrenti İndir  Torrenti Şikayet Et Torrent Tanımı Tanıtım Videosu
IMDB Puanı: 6.3 6.3/10
Kategori: 4K - UHD
Anonim Yükleyicihttp://www.imdb.com/title/tt3155328/

Tek Çare Kazanmak Win ** All 2017 TR NF 2160p WebRip x264 AC3 TrollUHD [NOVA]

İyi bir iş ve iyi kız arkadaş bulup eziklikten kurtuldu belki ama çözülmesi gereken 50.000 dolarlık bir sorunu var.Kendine ait olmayan 50.000 doları kumarda kaybeden Eddie, hayatını yeniden kurmaya başlamıştır. Ama kötü bir sürpriz onu eski bağımlılığına doğru iter.

Format : Matroska at 73.8 Mb/s
Length : 45.9 GiB for 1 s 28dk 58s 36 ms
Video #0 : AVC at 74.2 Mb/s
Aspect : 3840 x 1634 (2.350) at 23.976 fps
Audio #0 : AC-3 at 384 kb/s
Infos : 6 kanal, 44.1 kHz
Language : tr

Tek Çare Kazanmak Win It All 2017 TR NF 1080p WebRip x264 AC3 NOVA Torrent

Genişletmek için Tıkla!
28-05-2017 12:22 , TURKNOVA Tarafından Yüklendi.
Kaynaklar: 3 / İndirilen: 0 / Boyut: 6.38 GB / Tamamlandı: 90
Torrenti İndir  Torrenti Şikayet Et Torrent Tanımı Tanıtım Videosu
IMDB Puanı: 6.3 6.3/10
Kategori: Web-DL
Anonim Yükleyicihttp://www.imdb.com/title/tt3155328/

Tek Çare Kazanmak Win ** All 2017 TR NF 1080p WebRip x264 AC3 NOVA

İyi bir iş ve iyi kız arkadaş bulup eziklikten kurtuldu belki ama çözülmesi gereken 50.000 dolarlık bir sorunu var.Kendine ait olmayan 50.000 doları kumarda kaybeden Eddie, hayatını yeniden kurmaya başlamıştır. Ama kötü bir sürpriz onu eski bağımlılığına doğru iter.

Format : Matroska at 10.3 Mb/s
Length : 6.38 GiB for 1 s 28dk 58s 36 ms
Video #0 : AVC at 9 877 kb/s
Aspect : 1920 x 818 (2.347) at 23.976 fps
Audio #0 : AC-3 at 384 kb/s
Infos : 6 kanal, 44.1 kHz
Language : tr

Tek Çare Kazanmak Win It All 2017 TR NF 720p WebRip x264 AC3 NOVA Torrent

Genişletmek için Tıkla!
28-05-2017 12:22 , TURKNOVA Tarafından Yüklendi.
Kaynaklar: 6 / İndirilen: 0 / Boyut: 3.31 GB / Tamamlandı: 185
Torrenti İndir  Torrenti Şikayet Et Torrent Tanımı Tanıtım Videosu
IMDB Puanı: 6.3 6.3/10
Kategori: Web-DL
Anonim Yükleyicihttp://www.imdb.com/title/tt3155328/

Tek Çare Kazanmak Win ** All 2017 TR NF 720p WebRip x264 AC3 NOVA

İyi bir iş ve iyi kız arkadaş bulup eziklikten kurtuldu belki ama çözülmesi gereken 50.000 dolarlık bir sorunu var.Kendine ait olmayan 50.000 doları kumarda kaybeden Eddie, hayatını yeniden kurmaya başlamıştır. Ama kötü bir sürpriz onu eski bağımlılığına doğru iter.

Format : Matroska at 5 325 kb/s
Length : 3.31 GiB for 1 s 28dk 58s 36 ms
Video #0 : AVC at 4 939 kb/s
Aspect : 1280 x 544 (2.353) at 23.976 fps
Audio #0 : AC-3 at 384 kb/s
Infos : 6 kanal, 44.1 kHz
Language : tr

Sihirbazlar Çetesi 2 Now You See Me 2 2016 TRSub 1080p BluRay DD5.1 x264 Torrent

Genişletmek için Tıkla!
28-05-2017 03:49 , monalisa Tarafından Yüklendi.
Kaynaklar: 3 / İndirilen: 0 / Boyut: 10.39 GB / Tamamlandı: 140
Torrenti İndir  Torrenti Şikayet Et Torrent Tanımı Tanıtım Videosu
IMDB Puanı: 6.5 6.5/10
Kategori: BluRay 1080p
http://www.imdb.com/title/tt3110958/

Sihirbazlar Çetesi 2 Now You See Me 2 2016 TRSub 1080p BluRay DD5.1 x264
İzleyenlerin nefesini kesen ve toplumun hayranlığını kazandıkları Robin Hood stili gösterilerinin ardından bir sene geçmiştir. Atlılar çetesi geri dönüşünü müjdeleyen gösteri ile kaçmanın onlar için çocuk oyuncağından farksız olduğunu kanıtlayacaktır. J. Daniel Atlas, Merritt McKinney, Jack Wilder ve grubun yeni üyesi Lula ile birlikte, yeni gösterilerini Owen Case’i ifşa etme umuduyla sergilerler. Bu sefer FBI özel ajanı Dylan Rhodes’un da yardımını almışlardır fakat Rhodes'un ekibe katılımı gösteri öncesi ifşa olur; ve planlar geri teper. İtibarlarını geri kazanmka isteyen Atlılar kariyerlerinin en zorlu soygunu ile karşı karşıya kalacaklardır...
İlki 2013 yılında seyircisiyle buluşan ve ilüzyon marifetiyle çok başarılı bir soygun/intikam hikayesini konu alan suç gerilimi Sihirbazlar Çetesi'nin devamı olan filmin yönetmenliğini Jon M. Chu üstleniyor. Kadroda ilk filmden J. Daniel Atlas olarak tanıdığımız Jesse Eisenberg'e Mark Ruffalo, Dave Franco, Woody Harrelson, Lizzy Caplan ve Michael Caine eşlik ediyor.
Format : Matroska at 11.5 Mb/s
Length : 10.4 GiB for 2 h 9 min 28 s 292 ms
Video #0 : AVC at 10.9 Mb/s
Aspect : 1920 x 1080 (1.778) at 24.000 fps
Audio #0 : AC-3 at 384 kb/s
Infos : 6 channels, 48.0 kHz
Language : en
Text #0 : UTF-8
Language : en