Torrent Kategoriler

A
B
C
D
E
F
G
H
I
J
K
L
M
N
O
P
Q
R
S
T
U
V
W
X
Y
Z
0-9
Fi Bolum 12 1080p WebRip x264 AC3 NOVA Torrent

Genişletmek için Tıkla!
17-06-2017 03:06 , mornit Tarafından Yüklendi.
Kaynaklar: 11 / İndirilen: 0 / Boyut: 1.65 GB / Tamamlandı: 1,540
Torrenti İndir  Torrenti Şikayet Et Torrent Tanımı
Kategori: Web-DL

Fi Bolum 12 1080p WebRip x264 AC3 NOVA




Bir adam bir kadını sever ve dünya değişir. Ama hayatı kökten değiştiren, aşkı değil, aşkına ulaşabilmek için cesaret edebildikleridir. O kişiye duyduğu aşkın acımasızlığında öylesine büyük fırtınalar başlatır ki, sonunda, dokunduğu her şeyi yıkar. Ve bazen... Hayatın kendini yenilemesi için önce her şeyin yıkılması şarttır.


Format: Matroska at 3 153 kb/s
Length : 1.45 GiB for 1 s 5dk 39s 776 ms
Video #0 : AVC at 3 000 kb/s
Aspect : 1920 x 1080 (1.778) at 25.000 fps
Audio #0 : AC-3 at 192 kb/s
Infos : 1 kanal, 48.0 kHz



Payitaht 'Abdülhamit' Bölüm 15 1080p Web-DL AAC h264 Torrent

Genişletmek için Tıkla!
17-06-2017 01:11 , UtkuGARIP Tarafından Yüklendi.
Kaynaklar: 0 / İndirilen: 0 / Boyut: 1.94 GB / Tamamlandı: 58
Torrenti İndir  Torrenti Şikayet Et Torrent Tanımı Tanıtım Videosu
IMDB Puanı: 4.9 4.9/10
Kategori: Web-DL
http://www.imdb.com/title/tt6536562/

Payitaht 'Abdülhamit' Bölüm 15 1080p Web-DL AAC h264





Genişlet PHP:


Format 
Matroska at 2 059 kb/s
Length 
1.94 GiB for 2 s 14dk 53s 606 ms
Video 
#0 : AVC at 1 931 kb/s
Aspect 1920 x 1080 (1.778at 25.000 fps
Audio 
#0 : AAC at 126 kb/s
Infos 2 kanal44.1 kHz
Language 
tr






Cesur ve Güzel Bölüm 31 1080p WebDL AAC h264 Torrent

Genişletmek için Tıkla!
16-06-2017 15:36 , UtkuGARIP Tarafından Yüklendi.
Kaynaklar: 2 / İndirilen: 0 / Boyut: 2.54 GB / Tamamlandı: 30
Torrenti İndir  Torrenti Şikayet Et Torrent Tanımı Tanıtım Videosu
IMDB Puanı: 6.5 6.5/10
Kategori: Web-DL
http://www.imdb.com/title/tt6162588/

Cesur ve Güzel Bölüm 31 1080p WebDL AAC h264





Genişlet PHP:


Format 
Matroska at 2 497 kb/s
Length 
2.54 GiB for 2 s 25dk 39s 989 ms
Video 
#0 : AVC at 2 303 kb/s
Aspect 1920 x 1080 (1.778at 25.000 fps
Audio 
#0 : AAC at 192 kb/s
Infos 2 kanal48.0 kHz
Language 
tr






Savas Makinesi War Machine 2017 TR 1080p NF WEBRip AC3 x264 NOVA Torrent

Genişletmek için Tıkla!
16-06-2017 03:21 , TURKNOVA Tarafından Yüklendi.
Kaynaklar: 1 / İndirilen: 0 / Boyut: 7.18 GB / Tamamlandı: 85
Torrenti İndir  Torrenti Şikayet Et Torrent Tanımı Tanıtım Videosu
IMDB Puanı: 6.1 6.1/10
Kategori: Web-DL
Anonim Yükleyicihttp://www.imdb.com/title/tt4758646/

Savas Makinesi War Machine 2017 TR 1080p NF WEBRip AC3 x264 NOVA



Savaş Makinesi, Amerika'nın Afganistan'la olan savaşının kampanyasını yürüten insanlara odaklanan bir hiciv. Başrollerinde başarılı oyuncular Brad Pitt ile Tilda Swinton yer alıyor. Oyuncu kadrosunda ayrıca Lakeith Stanfield, Anthony Michael Hall, Emory Cohen ve usta aktör Ben Kingsley yer alıyor.
Yönetmenliğini David Michôd'un yaptığı filmin senaryosunu ise yine Michôd kaleme aldı.

Format : Matroska at 8 376 kb/s
Length : 7.18 GiB for 2 s 2dk 38s 624 ms
Video #0 : AVC at 7 999 kb/s
Aspect : 1920 x 816 (2.353) at 23.976 fps
Audio #0 : AC-3 at 640 kb/s
Infos : 6 kanal, 48.0 kHz
Language : tr

Savas Makinesi War Machine 2017 TR NF WEBRip AC3 x264 NOVA Torrent

Genişletmek için Tıkla!
16-06-2017 03:20 , TURKNOVA Tarafından Yüklendi.
Kaynaklar: 3 / İndirilen: 0 / Boyut: 2.22 GB / Tamamlandı: 93
Torrenti İndir  Torrenti Şikayet Et Torrent Tanımı Tanıtım Videosu
IMDB Puanı: 6.1 6.1/10
Kategori: Web-DL
Anonim Yükleyicihttp://www.imdb.com/title/tt4758646/

Savas Makinesi War Machine 2017 TR NF WEBRip AC3 x264 NOVA



Savaş Makinesi, Amerika'nın Afganistan'la olan savaşının kampanyasını yürüten insanlara odaklanan bir hiciv. Başrollerinde başarılı oyuncular Brad Pitt ile Tilda Swinton yer alıyor. Oyuncu kadrosunda ayrıca Lakeith Stanfield, Anthony Michael Hall, Emory Cohen ve usta aktör Ben Kingsley yer alıyor.
Yönetmenliğini David Michôd'un yaptığı filmin senaryosunu ise yine Michôd kaleme aldı.

Format : Matroska at 2 591 kb/s
Length : 2.22 GiB for 2 s 2dk 38s 624 ms
Video #0 : AVC at 1 999 kb/s
Aspect : 720 x 304 (2.368) at 23.976 fps
Audio #0 : AC-3 at 640 kb/s
Infos : 6 kanal, 48.0 kHz
Language : tr

Turk Mali Bolum 03 1080p Web-Rip x264 AC3 NOVA Torrent

Genişletmek için Tıkla!
16-06-2017 01:42 , DariusRz Tarafından Yüklendi.
Kaynaklar: 1 / İndirilen: 0 / Boyut: 1.91 GB / Tamamlandı: 52
Torrenti İndir  Torrenti Şikayet Et Torrent Tanımı
Kategori: Web-DL

Turk Mali Bolum 03 1080p Web-Rip x264 AC3 NOVA
Format : Matroska at 2 186 kb/s
Length : 1.91 GiB for 2 s 5dk 0s 832 ms
Video #0 : AVC at 1 999 kb/s
Aspect : 1920 x 1080 (1.778) at 23.976 fps
Audio #0 : AC-3 at 192 kb/s
Infos : 2 kanal, 48.0 kHz
Savaşçı Bölüm 9 720p WebDL AAC h264 Torrent

Genişletmek için Tıkla!
15-06-2017 15:50 , UtkuGARIP Tarafından Yüklendi.
Kaynaklar: 0 / İndirilen: 0 / Boyut: 1.08 GB / Tamamlandı: 52
Torrenti İndir  Torrenti Şikayet Et Torrent Tanımı Tanıtım Videosu
IMDB Puanı: 7.8 7.8/10
Kategori: Web-DL
http://www.imdb.com/title/tt6941980/

Savaşçı Bölüm 9 720p WebDL AAC h264





Genişlet PHP:


Format 
Matroska at 1 282 kb/s
Length 
1.08 GiB for 2 s 0dk 37s 892 ms
Video 
#0 : AVC at 1 154 kb/s
Aspect 1280 x 720 (1.778at 25.000 fps
Audio 
#0 : AAC at 126 kb/s
Infos 2 kanal44.1 kHz
Language 
tr






Diriliş Ertuğrul Bölüm 91 1080p WebDL AAC h264 Torrent

Genişletmek için Tıkla!
15-06-2017 05:02 , UtkuGARIP Tarafından Yüklendi.
Kaynaklar: 2 / İndirilen: 0 / Boyut: 2.89 GB / Tamamlandı: 360
Torrenti İndir  Torrenti Şikayet Et Torrent Tanımı Tanıtım Videosu
IMDB Puanı: 7.1 7.1/10
Kategori: Web-DL
http://www.imdb.com/title/tt4320258/

Diriliş "Ertuğrul" Bölüm 91 1080p WebDL AAC h264





Genişlet PHP:


Format 
Matroska at 2 499 kb/s
Length 
2.89 GiB for 2 s 45dk 32s 160 ms
Video 
#0 : AVC at 2 305 kb/s
Aspect 1920 x 1080 (1.778at 25.000 fps
Audio 
#0 : AAC at 192 kb/s
Infos 2 kanal48.0 kHz
Language 
tr






Söz Bolum 11 720p WebRip x264 AC3 NOVA Torrent

Genişletmek için Tıkla!
13-06-2017 21:10 , TURKNOVA Tarafından Yüklendi.
Kaynaklar: 1 / İndirilen: 0 / Boyut: 2.08 GB / Tamamlandı: 173
Torrenti İndir  Torrenti Şikayet Et Torrent Tanımı
Kategori: Web-DL
Anonim Yükleyici

Söz Bolum 11 720p WebRip x264 AC3 NOVA

*********************************************
*********************************************
Format : Matroska at 2 201 kb/s
Length : 2.08 GiB for 2 s 15dk 19s 520 ms
Video #0 : AVC at 2 000 kb/s
Aspect : 1280 x 720 (1.778) at 25.000 fps
Audio #0 : AC-3 at 192 kb/s
Infos : 2 kanal, 44.1 kHz
Language : tr
*********************************************
*********************************************
İsimsizler Bolum 12 720p WebRip x264 AC3 NOVA Torrent

Genişletmek için Tıkla!
13-06-2017 21:10 , TURKNOVA Tarafından Yüklendi.
Kaynaklar: 5 / İndirilen: 0 / Boyut: 1.87 GB / Tamamlandı: 280
Torrenti İndir  Torrenti Şikayet Et Torrent Tanımı
Kategori: Web-DL
Anonim Yükleyici

İsimsizler Bolum 12 720p WebRip x264 AC3 NOVA

Format : Matroska at 2 179 kb/s
Length : 1.87 GiB for 2 s 2dk 42s 160 ms
Video #0 : AVC at 2 000 kb/s
Aspect : 1280 x 720 (1.778) at 25.000 fps
Audio #0 : AC-3 at 192 kb/s
Infos : 2 kanal, 48.0 kHz
Language : tr
Ufak Suçlar Small Crimes 2017 Sansürsüz Web-DL DUAL TR EN h264 AC3 Torrent

Genişletmek için Tıkla!
13-06-2017 13:38 , UtkuGARIP Tarafından Yüklendi.
Kaynaklar: 1 / İndirilen: 0 / Boyut: 3 GB / Tamamlandı: 102
Torrenti İndir  Torrenti Şikayet Et Torrent Tanımı Tanıtım Videosu
IMDB Puanı: 5.9 5.9/10
Kategori: Web-DL
http://www.imdb.com/title/tt5717492/

Ufak Suçlar Small Crimes 2017 Sansürsüz Web-DL DUAL TR EN h264 AC3









Türkçe Altyazı
English Subtitle



Cinayet girişiminde bulunmasından dolayı 6 yıl hapis cezasına çarptırılıp cezasını çektikten sonra kefaret için evine dönen bir polisin arkasında bıraktıklarının kendisini takip etmesinin hikayesini anlatan Small Crimes, David Zeltserman’ın aynı adlı romanın bir uyarlaması. Başrolde Game of Thrones’la tanınan Nikolaj Coster-Waldau’nun yer aldığı film, ilk bakışta bol eğlence ve aksiyon vaat ediyormuş gibi görünüyor.


Genişlet PHP:


Format 
Matroska at 4 509 kb/s
Length 
3.00 GiB for 1 s 35dk 6s 272 ms
Video 
#0 : AVC at 3 739 kb/s
Aspect 1280 x 532 (2.406at 23.976 fps
Audio 
#0 : AC-3 at 384 kb/s
Infos 6 kanal48.0 kHz
Language 
tr
Audio 
#1 : AC-3 at 384 kb/s
Infos 6 kanal48.0 kHz
Language 
en
Text 
#0 : UTF-8
Language tr
Text 
#1 : UTF-8
Language en






İçerde Bölüm 38 Sansürsüz 1080p WebDL AAC h264 Torrent

Genişletmek için Tıkla!
13-06-2017 04:36 , UtkuGARIP Tarafından Yüklendi.
Kaynaklar: 2 / İndirilen: 0 / Boyut: 2.37 GB / Tamamlandı: 334
Torrenti İndir  Torrenti Şikayet Et Torrent Tanımı Tanıtım Videosu
IMDB Puanı: 7.0 7.0/10
Kategori: Web-DL
http://www.imdb.com/title/tt6051216/

İçerde Bölüm 38 Sansürsüz 1080p WebDL AAC h264





Genişlet PHP:


Format 
Matroska at 2 497 kb/s
Length 
2.37 GiB for 2 s 15dk 50s 976 ms
Video 
#0 : AVC at 2 302 kb/s
Aspect 1920 x 1080 (1.778at 25.000 fps
Audio 
#0 : AAC at 192 kb/s
Infos 2 kanal48.0 kHz
Language 
tr






Berrak Göl Shimmer Lake 2017 1080p NF WEBRip AC3 DUAL TR ENG x264-SB Torrent

Genişletmek için Tıkla!
13-06-2017 03:58 , TURKNOVA Tarafından Yüklendi.
Kaynaklar: 0 / İndirilen: 0 / Boyut: 6.34 GB / Tamamlandı: 43
Torrenti İndir  Torrenti Şikayet Et Torrent Tanımı Tanıtım Videosu
IMDB Puanı: 6.2 6.2/10
Kategori: Web-DL
Anonim Yükleyicihttp://www.imdb.com/title/tt1386691/

Berrak Göl Shimmer Lake 2017 1080p NF WEBRip AC3 DUAL TR ENG x264-SB

Biri kendi erkek kardeşi olan üç banka soyguncusunun peşine yeref şerifin öyküsüne anlatan Shimmer Lake, zamanda geriye doğru ilerleyen kara mizah yüklü bir suç gerilim filmi.

Format : Matroska at 10.5 Mb/s
Length : 6.34 GiB for 1 s 26dk 37s 856 ms
Video #0 : AVC at 9 204 kb/s
Aspect : 1920 x 800 (2.400) at 23.976 fps
Audio #0 : AC-3 at 640 kb/s
Infos : 6 kanal, 48.0 kHz
Language : tr
Audio #1 : AC-3 at 640 kb/s
Infos : 6 kanal, 48.0 kHz
Language : en
Text #0 : UTF-8
Language : tr
Text #1 : UTF-8
Language : tr

Berrak Göl Shimmer Lake 2017 720p NF WEBRip AC3 DUAL TR ENG x264-SB Torrent

Genişletmek için Tıkla!
13-06-2017 03:58 , TURKNOVA Tarafından Yüklendi.
Kaynaklar: 1 / İndirilen: 0 / Boyut: 3.1 GB / Tamamlandı: 30
Torrenti İndir  Torrenti Şikayet Et Torrent Tanımı Tanıtım Videosu
IMDB Puanı: 6.2 6.2/10
Kategori: Web-DL
Anonim Yükleyicihttp://www.imdb.com/title/tt1386691/

Berrak Göl Shimmer Lake 2017 720p NF WEBRip AC3 DUAL TR ENG x264-SB

Biri kendi erkek kardeşi olan üç banka soyguncusunun peşine yeref şerifin öyküsüne anlatan Shimmer Lake, zamanda geriye doğru ilerleyen kara mizah yüklü bir suç gerilim filmi.

Format : Matroska at 5 115 kb/s
Length : 3.10 GiB for 1 s 26dk 37s 860 ms
Video #0 : AVC at 3 833 kb/s
Aspect : 1280 x 534 (2.397) at 23.976 fps
Audio #0 : AC-3 at 640 kb/s
Infos : 6 kanal, 48.0 kHz
Language : tr
Audio #1 : AC-3 at 640 kb/s
Infos : 6 kanal, 48.0 kHz
Language : en
Text #0 : UTF-8
Language : tr
Text #1 : UTF-8
Language : tr

Berrak Göl Shimmer Lake 2017 TR NF WEBRip XviD-SB Torrent

Genişletmek için Tıkla!
13-06-2017 03:57 , TURKNOVA Tarafından Yüklendi.
Kaynaklar: 3 / İndirilen: 0 / Boyut: 1.13 GB / Tamamlandı: 150
Torrenti İndir  Torrenti Şikayet Et Torrent Tanımı Tanıtım Videosu
IMDB Puanı: 6.2 6.2/10
Kategori: Web-DL
Anonim Yükleyicihttp://www.imdb.com/title/tt1386691/

Berrak Göl Shimmer Lake 2017 TR NF WEBRip XviD-SB

Biri kendi erkek kardeşi olan üç banka soyguncusunun peşine yeref şerifin öyküsüne anlatan Shimmer Lake, zamanda geriye doğru ilerleyen kara mizah yüklü bir suç gerilim filmi.

Format : AVI at 1 864 kb/s
Length : 1.13 GiB for 1 s 26dk 37s 359 ms
Video #0 : MPEG-4 Visual at 1 726 kb/s
Aspect : 720 x 304 (2.368) at 23.976 fps
Audio #0 : MPEG Audio at 128 kb/s
Infos : 2 kanal, 48.0 kHz

The Fate of the Furious Öfkenin Kaderi 2017 TRSub 1080p WEB-DL x264 AC3 NOVA Torrent

Genişletmek için Tıkla!
13-06-2017 03:19 , TURKNOVA Tarafından Yüklendi.
Kaynaklar: 2 / İndirilen: 0 / Boyut: 4.67 GB / Tamamlandı: 251
Torrenti İndir  Torrenti Şikayet Et Torrent Tanımı Tanıtım Videosu
IMDB Puanı: 7.1 7.1/10
Kategori: Web-DL
Anonim Yükleyicihttp://www.imdb.com/title/tt4630562/

The Fate of the Furious Öfkenin Kaderi 2017 TRSub 1080p WEB-DL x264 AC3 NOVA


TRSub Filme Eklenmiştir Sadece Aktif Etmeniz Gerekli

Hızlı ve Öfkeli 8 ismiyle andığımız yapımın yönetmenliğini F. Gary Gray üstleniyor. Merakla beklenen yapımın senaryosunu ise Chris Morgan kaleme aldı. Paul Walker olmadan devam eden seriye bu sefer yeni isimler dahil oluyor. Vin Diesel, Michelle Rodriguez, Dwayne Johnson, Tyrese Gibson, Chris Bridges, Lucas Black, Scott Eastwood, Kurt Russell, Jason Statham’dan oluşan kalabalık ekip sekizinci hikayede geri dönüyor. Onlara bu sefer Charlize Theron ve Helen Mirren katılıyor.Küba‘dan New York‘a uzanan bu hikayede ekip normal bir hayata adım atmaya hazırlanıyor. Dom ve Letty balayılarını yaşarken, Brian ile Mia emekli olmaya karar veriyor. Ancak aniden ortaya çıkan gizemli bir kadın her şeyi değiştiriyor. Dom‘u baştan çıkartıp onu suç dünyasına dahil etmeyi başarıyor. Arkadaşlarına ne olduğunu anlayamayan ekip kendilerini yeniden aksiyonun ortasında buluyor.

Format : Matroska at 4 913 kb/s
Length : 4.67 GiB for 2 s 15dk 57s 491 ms
Video #0 : AVC at 4 527 kb/s
Aspect : 1916 x 796 (2.407) at 23.976 fps
Audio #0 : AC-3 at 384 kb/s
Infos : 6 kanal, 48.0 kHz
Language : en
Text #0 : UTF-8
Language : tr

Söz Bölüm 10 Sansürsüz 1080p WebDL AAC h264 Torrent

Genişletmek için Tıkla!
12-06-2017 18:57 , UtkuGARIP Tarafından Yüklendi.
Kaynaklar: 1 / İndirilen: 0 / Boyut: 2.15 GB / Tamamlandı: 115
Torrenti İndir  Torrenti Şikayet Et Torrent Tanımı Tanıtım Videosu
IMDB Puanı: 7.4 7.4/10
Kategori: Web-DL
http://www.imdb.com/title/tt6942056/

Söz Bölüm 10 Sansürsüz 1080p WebDL AAC h264





Genişlet PHP:


Format 
Matroska at 2 316 kb/s
Length 
2.15 GiB for 2 s 13dk 7s 374 ms
Video 
#0 : AVC at 2 188 kb/s
Aspect 1920 x 1080 (1.778at 25.000 fps
Audio 
#0 : AAC at 126 kb/s
Infos 2 kanal44.1 kHz
Language 
tr






Cesur ve Güzel Bölüm 24 1080p WebDL AAC h264 Torrent

Genişletmek için Tıkla!
11-06-2017 16:06 , UtkuGARIP Tarafından Yüklendi.
Kaynaklar: 0 / İndirilen: 0 / Boyut: 2.54 GB / Tamamlandı: 11
Torrenti İndir  Torrenti Şikayet Et Torrent Tanımı Tanıtım Videosu
IMDB Puanı: 6.5 6.5/10
Kategori: Web-DL
http://www.imdb.com/title/tt6162588/

Cesur ve Güzel Bölüm 24 1080p WebDL AAC h264





Genişlet PHP:


Format 
Matroska at 2 497 kb/s
Length 
2.54 GiB for 2 s 25dk 39s 989 ms
Video 
#0 : AVC at 2 303 kb/s
Aspect 1920 x 1080 (1.778at 25.000 fps
Audio 
#0 : AAC at 192 kb/s
Infos 2 kanal48.0 kHz
Language 
tr






Fi Bolum 11 1080p WebRip x264 AC3 NOVA Torrent

Genişletmek için Tıkla!
11-06-2017 12:09 , TURKNOVA Tarafından Yüklendi.
Kaynaklar: 6 / İndirilen: 0 / Boyut: 1.49 GB / Tamamlandı: 1,093
Torrenti İndir  Torrenti Şikayet Et Torrent Tanımı
Kategori: Web-DL
Anonim Yükleyici

Fi Bolum 11 1080p WebRip x264 AC3 NOVA




Bir adam bir kadını sever ve dünya değişir. Ama hayatı kökten değiştiren, aşkı değil, aşkına ulaşabilmek için cesaret edebildikleridir. O kişiye duyduğu aşkın acımasızlığında öylesine büyük fırtınalar başlatır ki, sonunda, dokunduğu her şeyi yıkar. Ve bazen... Hayatın kendini yenilemesi için önce her şeyin yıkılması şarttır.


Format: Matroska at 3 153 kb/s
Length : 1.45 GiB for 1 s 5dk 39s 776 ms
Video #0 : AVC at 3 000 kb/s
Aspect : 1920 x 1080 (1.778) at 25.000 fps
Audio #0 : AC-3 at 192 kb/s
Infos : 1 kanal, 48.0 kHz



Fi Bolum 10 1080p WebRip x264 AC3 NOVA Torrent

Genişletmek için Tıkla!
11-06-2017 00:58 , TURKNOVA Tarafından Yüklendi.
Kaynaklar: 7 / İndirilen: 0 / Boyut: 1.71 GB / Tamamlandı: 1,070
Torrenti İndir  Torrenti Şikayet Et Torrent Tanımı
Kategori: Web-DL
Anonim Yükleyici

Fi Bolum 10 1080p WebRip x264 AC3 NOVA




Bir adam bir kadını sever ve dünya değişir. Ama hayatı kökten değiştiren, aşkı değil, aşkına ulaşabilmek için cesaret edebildikleridir. O kişiye duyduğu aşkın acımasızlığında öylesine büyük fırtınalar başlatır ki, sonunda, dokunduğu her şeyi yıkar. Ve bazen... Hayatın kendini yenilemesi için önce her şeyin yıkılması şarttır.


Format: Matroska at 3 153 kb/s
Length : 1.45 GiB for 1 s 5dk 39s 776 ms
Video #0 : AVC at 3 000 kb/s
Aspect : 1920 x 1080 (1.778) at 25.000 fps
Audio #0 : AC-3 at 192 kb/s
Infos : 1 kanal, 48.0 kHz



Vatanım Sensin Bölüm 31 480p WebDL AAC H.264 Torrent

Genişletmek için Tıkla!
09-06-2017 19:21 , UtkuGARIP Tarafından Yüklendi.
Kaynaklar: 0 / İndirilen: 0 / Boyut: 1.05 GB / Tamamlandı: 126
Torrenti İndir  Torrenti Şikayet Et Torrent Tanımı Tanıtım Videosu
IMDB Puanı: 8.0 8.0/10
Kategori: Web-DL
http://www.imdb.com/title/tt6132720/

Vatanım Sensin Bölüm 31 480p WebDL AAC H.264





Genişlet PHP:


Format 
Matroska at 1 118 kb/s
Length 
1.05 GiB for 2 s 13dk 47s 801 ms
Video 
#0 : AVC at 991 kb/s
Aspect 640 x 480 (1.778at 25.000 fps
Audio 
#0 : AAC at 125 kb/s
Infos 2 kanal48.0 kHz
Language 
tr






Diriliş "Ertuğrul" Bölüm 90 720p Web-DL AC3 MPEG-4 Torrent

Genişletmek için Tıkla!
09-06-2017 16:41 , UtkuGARIP Tarafından Yüklendi.
Kaynaklar: 2 / İndirilen: 0 / Boyut: 1.05 GB / Tamamlandı: 176
Torrenti İndir  Torrenti Şikayet Et Torrent Tanımı Tanıtım Videosu
IMDB Puanı: 7.1 7.1/10
Kategori: Web-DL
http://www.imdb.com/title/tt4320258/

Diriliş "Ertuğrul" Bölüm 90 720p Web-DL AC3 MPEG-4





Genişlet PHP:


Format 
Matroska at 1 155 kb/s
Length 
1.05 GiB for 2 s 10dk 24s 560 ms
Video 
#0 : MPEG-4 Visual at 1 024 kb/s
Aspect 1280 x 720 (1.778at 25.000 fps
Audio 
#0 : AC-3 at 128 kb/s
Infos 2 kanal44.1 kHz
Language 
tr






Hayat Şarkısı Bölüm 57 480p WebDL AAC h264 Torrent

Genişletmek için Tıkla!
07-06-2017 19:08 , UtkuGARIP Tarafından Yüklendi.
Kaynaklar: 0 / İndirilen: 0 / Boyut: 1.2 GB / Tamamlandı: 22
Torrenti İndir  Torrenti Şikayet Et Torrent Tanımı Tanıtım Videosu
IMDB Puanı: 6.7 6.7/10
Kategori: Web-DL
http://www.imdb.com/title/tt5302120/

Hayat Şarkısı Bölüm 57 480p WebDL AAC h264





Genişlet PHP:


Format 
Matroska at 1 116 kb/s
Length 
1.20 GiB for 2 s 34dk 26s 600 ms
Video 
#0 : AVC at 988 kb/s
Aspect 640 x 480 (1.778at 25.000 fps
Audio 
#0 : AAC at 125 kb/s
Infos 2 kanal48.0 kHz
Language 
tr






Vatanım Sensin Bölüm 28 480p WebDL AAC H.264 Torrent

Genişletmek için Tıkla!
07-06-2017 01:35 , UtkuGARIP Tarafından Yüklendi.
Kaynaklar: 0 / İndirilen: 0 / Boyut: 1000.49 MB / Tamamlandı: 27
Torrenti İndir  Torrenti Şikayet Et Torrent Tanımı Tanıtım Videosu
IMDB Puanı: 8.0 8.0/10
Kategori: Web-DL
http://www.imdb.com/title/tt6132720/

Vatanım Sensin Bölüm 28 480p WebDL AAC H.264





Genişlet PHP:



Format 
Matroska at 1 114 kb/s
Length 
1 000 MiB for 2 s 5dk 34s 120 ms
Video 
#0 : AVC at 986 kb/s
Aspect 640 x 480 (1.778at 25.000 fps
Audio 
#0 : AAC at 125 kb/s
Infos 2 kanal48.0 kHz
Language 
tr







Turk Mali Bolum 02 1080p Web-Rip x264 AC3 NOVA Torrent

Genişletmek için Tıkla!
06-06-2017 14:17 , DariusRz Tarafından Yüklendi.
Kaynaklar: 2 / İndirilen: 0 / Boyut: 1.94 GB / Tamamlandı: 135
Torrenti İndir  Torrenti Şikayet Et Torrent Tanımı
Kategori: Web-DL

Turk Mali Bolum 02 1080p Web-Rip x264 AC3 NOVA
Format : Matroska at 2 205 kb/s
Length : 1.94 GiB for 2 s 6dk 11s 360 ms
Video #0 : AVC at 1 999 kb/s
Aspect : 1920 x 1080 (1.778) at 23.976 fps
Audio #0 : AC-3 at 192 kb/s
Infos : 2 kanal, 48.0 kHz
İsimsizler Bolum 11 720p WEBRip x264 AC3 NOVA Torrent

Genişletmek için Tıkla!
06-06-2017 11:51 , DariusRz Tarafından Yüklendi.
Kaynaklar: 3 / İndirilen: 0 / Boyut: 1.9 GB / Tamamlandı: 310
Torrenti İndir  Torrenti Şikayet Et Torrent Tanımı
Kategori: Web-DL

İsimsizler Bolum 11 720p WEBRip x264 AC3 NOVA
Format : Matroska at 2 184 kb/s
Length : 1.90 GiB for 2 s 4dk 44s 28 ms
Video #0 : AVC at 1 990 kb/s
Aspect : 1280 x 720 (1.778) at 23.976 fps
Audio #0 : AC-3 at 192 kb/s
Infos : 2 kanal, 48.0 kHz
Savaşçı Bölüm 08 720p WEB-DL x264 AAC Torrent

Genişletmek için Tıkla!
06-06-2017 11:13 , DariusRz Tarafından Yüklendi.
Kaynaklar: 0 / İndirilen: 0 / Boyut: 1.09 GB / Tamamlandı: 124
Torrenti İndir  Torrenti Şikayet Et Torrent Tanımı
Kategori: Web-DL

Savaşçı Bölüm 08 720p WEB-DL x264 AAC
Format : MPEG-4 at 1 363 kb/s
Length : 1.09 GiB for 1 s 54dk 32s 619 ms
Video #0 : AVC at 1 234 kb/s
Aspect : 1280 x 720 (1.778) at 25.000 fps
Audio #0 : AAC at 126 kb/s
Infos : 2 kanal, 44.1 kHz
Savaşçı Bölüm 07 720p WEB-DL x264 AAC Torrent

Genişletmek için Tıkla!
06-06-2017 11:13 , DariusRz Tarafından Yüklendi.
Kaynaklar: 0 / İndirilen: 0 / Boyut: 893.11 MB / Tamamlandı: 39
Torrenti İndir  Torrenti Şikayet Et Torrent Tanımı
Kategori: Web-DL

Savaşçı Bölüm 07 720p WEB-DL x264 AAC
Format : MPEG-4 at 960 kb/s
Length : 893 MiB for 2 s 10dk 3s 460 ms
Video #0 : AVC at 831 kb/s
Aspect : 1280 x 720 (1.778) at 25.000 fps
Audio #0 : AAC at 126 kb/s
Infos : 2 kanal, 44.1 kHz
Oglan Bizim Kız Bizim WEB-DL 720p x264 AAC Torrent

Genişletmek için Tıkla!
06-06-2017 06:43 , TURKNOVA Tarafından Yüklendi.
Kaynaklar: 13 / İndirilen: 0 / Boyut: 1.07 GB / Tamamlandı: 338
Torrenti İndir  Torrenti Şikayet Et Torrent Tanımı
Kategori: Web-DL
Anonim Yükleyici

Oglan Bizim Kız Bizim WEB-DL 720p x264
Uzun yıllardır birlikte olduğu sevgilisinden beklediği evlilik teklifini bir türlü alamamış Zeynep (Melis Babadağ) yaşadığı büyük hayal kırıklığının ardından bir radyonun düzenlediği yarışmayı kazanarak Antalya'da bir tatil kazanır. Aynı yarışmayı kazanan diğer kişi ise son derece eğitimli ve kültürlü bir oto tamircisi olan Barış'tır (Aras Aydın). Karşılaştıkları ilk andan itibaren kavga etmeye başlayan ikili, yanlarında gelen en yakın arkadaşlarının da yardımıyla tatili birbirlerine zehir ederler. Ne var ki zorunlu olarak birlikte geçirdikleri zaman süresince aralarında duygusal bir yakınlaşmanın kıvılcımları da gözle görülür hale gelecektir.
General
Unique ID : 214060507869594782802510739970015954371 (0xA10A8DE029479D138BD9FF50436D05C3)
Complete name : C:\Users\ErdaL DemiR\Desktop\Oglan Bizim Kız Bizim WEB-DL 720p x264.mkv
Format : Matroska
Format version : Version 4 / Version 2
File size : 1.07 GiB
Duration : 1h 49mn
Overall bit rate : 1 399 Kbps
Encoded date : UTC 2017-06-05 22:43:22
Writing application : mkvmerge v8.1.0 32bit
Writing library : libebml v1.3.1 + libmatroska v1.4.2
DURATION : 01:49:23.863000000
NUMBER_OF_FRAMES : 282682
NUMBER_OF_BYTES : 76787712
_STATISTICS_WRITING_APP : mkvmerge v8.1.0 32bit
_STATISTICS_WRITING_DATE_UTC : 2017-06-05 22:43:22
_STATISTICS_TAGS : BPS DURATION NUMBER_OF_FRAMES NUMBER_OF_BYTES
Video
ID : 1
Format : AVC
Format/Info : Advanced Video Codec
Format profile : Main@L3.1
Format settings, CABAC : Yes
Format settings, ReFrames : 3 frames
Codec ID : V_MPEG4/ISO/AVC
Duration : 1h 49mn
Width : 1 280 pixels
Height : 720 pixels
Display aspect ratio : 16:9
Frame rate mode : Constant
Frame rate : 25.000 fps
Color space : YUV
Chroma subsampling : 4:2:0
Bit depth : 8 bits
Scan type : Progressive
Default : Yes
Forced : No
Color range : Limited
Color primaries : BT.709
Transfer characteristics : BT.709
Matrix coefficients : BT.709
Audio
ID : 2
Format : AAC
Format/Info : Advanced Audio Codec
Format profile : LC
Codec ID : A_AAC
Duration : 1h 49mn
Channel(s) : 1 channel
Channel positions : Front: C
Sampling rate : 44.1 KHz
Compression mode : Lossy
Default : Yes
Forced : No
İçerde Bolum 37 Sansursuz 1080p WEBRip x264 AC3 NOVA Torrent

Genişletmek için Tıkla!
06-06-2017 02:16 , DariusRz Tarafından Yüklendi.
Kaynaklar: 2 / İndirilen: 0 / Boyut: 1.84 GB / Tamamlandı: 599
Torrenti İndir  Torrenti Şikayet Et Torrent Tanımı
Kategori: Web-DL

İçerde Bolum 37 Sansursuz 1080p WEBRip x264 AC3 NOVA
Format : Matroska at 2 192 kb/s
Length : 1.84 GiB for 2 s 0dk 17s 920 ms
Video #0 : AVC at 1 999 kb/s
Aspect : 1920 x 1080 (1.778) at 23.976 fps
Audio #0 : AC-3 at 192 kb/s
Infos : 2 kanal, 48.0 kHz
Ata Demirer Tek Kişilik Dev Kadro 1 2006 Web-DL MPEG Torrent

Genişletmek için Tıkla!
04-06-2017 15:07 , mronur87 Tarafından Yüklendi.
Kaynaklar: 1 / İndirilen: 0 / Boyut: 1.03 GB / Tamamlandı: 78
Torrenti İndir  Torrenti Şikayet Et Torrent Tanımı
Kategori: Web-DL

Ata Demirer Tek Kişilik Dev Kadro 1 2006 Web-DL MPEG





Ata Demirer, günük hayata dair izlenimlerini, ünlü sanatçılardan çeşitli meslek erbablarına kadar farklı kişilerin özgün tiplemelerini, karakter komedisi ile canlandırarak anlattığı gösterisini keyifle izleyeceksiniz.



Görüntü ID :224 (0xE0)
Biçim :MPEG
Süre :56dk 20s
Genişlik :352 piksel
Yükseklik :288 piksel




Eşkiya 1996 Web-DL x264 AAC Torrent

Genişletmek için Tıkla!
04-06-2017 13:56 , mronur87 Tarafından Yüklendi.
Kaynaklar: 2 / İndirilen: 0 / Boyut: 448.57 MB / Tamamlandı: 55
Torrenti İndir  Torrenti Şikayet Et Torrent Tanımı
Kategori: Web-DL

Eşkiya 1996 Web-DL x264 AAC




35 yıl önce Cudi dağlarında bir grup eşkıya jandarma tarafından yakalanır. 35 yıl içinde eşkıyaların hepsi ya hastalıktan ya da bölgedeki hesaplaşmalardan ötürü can vermiştir. Biri dışında; Baran...Baran 35 yıl sonra hapisten çıkınca ilk işi köyüne dönmek olur. Ama doğduğu topraklar şimdi baraj suları altındadır. Geçmişin izlerini sürmeye başlayan Eşkıya, yıllardır bilmediği bir gerçeği öğrenir. Hapse düşmesine en yakın arkadaşının ihaneti neden olmuştur. Bu arkadaş Eşkıya Baran'in çocukluk aşkını, Keje’yi satın alarak İstanbul’a kaçmıştır. Eşkıya ne İstanbul’u ne de arkadaşının adresini bilmemektedir. Tren'de, Tarlabaşı'nın arka sokaklarında büyümüş, pavyon, kumarhane, uyuşturucu muhabbetinin içinde yaşayan Cumali adlı genç bir adamla tanışır. Onla birlikte İstanbul'a gider ve kendisinin derdinin yanında bir de Cumali'nin derdiyle uğraşmaya başlar. İstanbul ve bu karanlık sokaklar adım adım sevdiği kadın Keje ye yaklaştırır Eşkıya'yı....


Süre :2 s 2dk
Düşük bit oranı :476 kb/s
Genişlik :640 piksel
Yükseklik :320 piksel
Görüntü en-boy oranı :2.000
Kare hız modu :Sabit
Kare hızı :25.000 kare/s
Renk alanı :YUV
Krom altörnekleme :4:2:0
Bit yoğunluğu :8 bit



Vatanım Sensin Bölüm 30 720p WebDL AAC h264 Torrent

Genişletmek için Tıkla!
04-06-2017 01:57 , UtkuGARIP Tarafından Yüklendi.
Kaynaklar: 0 / İndirilen: 0 / Boyut: 1.36 GB / Tamamlandı: 102
Torrenti İndir  Torrenti Şikayet Et Torrent Tanımı
Kategori: Web-DL

Vatanım Sensin Bölüm 30 720p WebDL AAC h264





Genişlet PHP:


Format 
Matroska at 1 615 kb/s
Length 
1.36 GiB for 2 s 0dk 13s 161 ms
Video 
#0 : AVC at 1 500 kb/s
Aspect 1280 x 720 (1.778at 25.000 fps
Audio 
#0 : AAC at 125 kb/s
Infos 2 kanal48.0 kHz
Language 
tr






Dirilis ''Ertugrul'' Bolum 89 1080p WebRip x264 NOVA Torrent

Genişletmek için Tıkla!
02-06-2017 21:55 , DariusRz Tarafından Yüklendi.
Kaynaklar: 2 / İndirilen: 0 / Boyut: 2.53 GB / Tamamlandı: 344
Torrenti İndir  Torrenti Şikayet Et Torrent Tanımı
Kategori: Web-DL

Dirilis ''Ertugrul'' Bolum 89 1080p WebRip x264 NOVA
Format : Matroska at 2 492 kb/s
Length : 2.53 GiB for 2 s 25dk 19s 776 ms
Video #0 : AVC at 2 298 kb/s
Aspect : 1920 x 1080 (1.778) at 25.000 fps
Audio #0 : AC-3 at 192 kb/s
Infos : 2 kanal, 48.0 kHz
Logan Wolverine 2017 DUAL TR-EN DD Web-DL h264 Torrent

Genişletmek için Tıkla!
02-06-2017 18:48 , UtkuGARIP Tarafından Yüklendi.
Kaynaklar: 3 / İndirilen: 0 / Boyut: 3.38 GB / Tamamlandı: 313
Torrenti İndir  Torrenti Şikayet Et Torrent Tanımı Tanıtım Videosu
IMDB Puanı: 8.3 8.3/10
Kategori: Web-DL
http://www.imdb.com/title/tt3315342/

Logan: Wolverine 2017 DUAL TR-EN DD Web-DL h264







Türkçe Altyazı
English Subtitle
English Subtitle (Hearing Impaired)



Yakın gelecekte yaşlanmış ve yorgun olan Wolverine ve Professor X, Meksika sınırında saklanmaktadır. Fakat Logan'ın dünyadan gizlenmesi ve mirası, karanlık güçler tarafından takip edilen genç bir mutant geldiğinde sona erer. Şimdi Wolverine'de genç bir kadın klonunu Nathanial Essex'in liderliğindeki kötü bir organizasyondan korumalıdır.
Hugh Jackman'ı son kez Wolverine olarak gördüğümüz film Logan'ı James Mangold yönetiyor. Başrollerinde ise Hugh Jackman dışında Boyd Holbrook, Patrick Stewart ve Doris Morgado yer alıyor.



Genişlet PHP:


Format 
Matroska at 3 526 kb/s
Length 
3.38 GiB for 2 s 17dk 24s 416 ms
Video 
#0 : AVC at 2 500 kb/s
Aspect 1920 x 808 (2.376at 23.976 fps
Audio 
#0 : AC-3 at 384 kb/s
Infos 6 kanal48.0 kHz
Language 
tr
Audio 
#1 : AC-3 at 640 kb/s
Infos 6 kanal48.0 kHz
Language 
en
Text 
#0 : UTF-8
Language tr
Text 
#1 : UTF-8
Language tr
Text 
#2 : UTF-8
Language en






Benim Adım Feridun 2016 TR Web-DL H.264 AAC Torrent

Genişletmek için Tıkla!
01-06-2017 17:46 , UtkuGARIP Tarafından Yüklendi.
Kaynaklar: 5 / İndirilen: 0 / Boyut: 1.12 GB / Tamamlandı: 673
Torrenti İndir  Torrenti Şikayet Et Torrent Tanımı Tanıtım Videosu
IMDB Puanı: 5.3 5.3/10
Kategori: Web-DL
http://www.imdb.com/title/tt6229652/

Benim Adım Feridun 2016 TR Web-DL H.264 AAC









Uzun süreli bir ilişkinin içindeki Ersan artık sevgilisine ilgi göstermeyi ve romantik olmayı bırakmıştır. Uzun ilişkinin rahatlığının keyfini süren adam günün birinde uzun süreli sevgilisi Ayla tarafında terk edilince sudan çıkmış balığa döner. Birkaç hafta boyunca sevdiği kadını geri kazanmaya çalışsa da sonuç nafiledir. Ayla geri dönmeyi kabul etmez. Bunun üzerine artık ayrılığı kabullenmesi gerektiğini anlayan Ersan farklı bir yerin iyi geleceği umuduyla uzun zamandır gitmediği Erdek'teki çocukluğunun geçtiği eve gider. Ancak burada da aradığı teselliyi bulamayan Ersan sahilde dolaşırken yakınlarda bir düğün olduğunu fark eder. Bir şeyler için çıkma düşüncesiyle düğüne giren Ersan, düğündeki damadın babası tarafından yıllar önce küsüp Almanya’ya yerleşen kardeşinin oğlu Feridun sanılır. İlk başta bu rolden memnun olan Ersan ilk fırsatta kaçarım diye düşünürken damadın kuzeni Hayal’i görür. Geceyle birlikte ilginç ve komik olaylar da bir bir başına gelecektir..
Çağan Irmak'ın hem yönetmenliğini hem de senaristliğini üstlendiği filmin başrollerinde Halil Sezai, Büşra Pekin ve Tarık Pabuçcuoğlu yer alırken filmin kadrosunda Suzan Aksoy, Güngör Bayrak, Kadriye Kenter, Defne Yalnız ve Özge Borak yer alıyor.



Genişlet PHP:


Format 
Matroska at 1 541 kb/s
Length 
1.12 GiB for 1 s 43dk 43s 880 ms
Video 
#0 : AVC at 1 500 kb/s
Aspect 1280 x 720 (1.778at 25.000 fps
Audio 
#0 : AAC at 96.0 kb/s
Infos 2 kanal44.1 kHz
Language 
tr






İsimsizler Bolum 10 720p Web-Rip x264 AC3 NOVA Torrent

Genişletmek için Tıkla!
01-06-2017 13:58 , DariusRz Tarafından Yüklendi.
Kaynaklar: 3 / İndirilen: 0 / Boyut: 1.81 GB / Tamamlandı: 232
Torrenti İndir  Torrenti Şikayet Et Torrent Tanımı
Kategori: Web-DL

İsimsizler Bolum 10 720p Web-Rip x264 AC3 NOVA
Format : Matroska at 1 992 kb/s
Length : 1.81 GiB for 2 s 9dk 50s 608 ms
Video #0 : AVC at 1 798 kb/s
Aspect : 1280 x 720 (1.778) at 23.976 fps
Audio #0 : AC-3 at 192 kb/s
Infos : 2 kanal, 48.0 kHz
Bir Hawai Ruyasi A Midsummer's Hawaiian Dream 2016 WEBRip XviD Torrent

Genişletmek için Tıkla!
31-05-2017 20:18 , erdaldemir20 Tarafından Yüklendi.
Kaynaklar: 2 / İndirilen: 0 / Boyut: 1.01 GB / Tamamlandı: 97
Torrenti İndir  Torrenti Şikayet Et Torrent Tanımı Tanıtım Videosu
IMDB Puanı: 5.7 5.7/10
Kategori: Web-DL
http://www.imdb.com/title/tt6060234/

Bir Hawai Ruyasi A Midsummer's Hawaiian Dream 2016 WEBRip XviD

Avukat Tanya McQueen, antropologlardan oluşan bir ekibin bulunması halinde, Nick Button’un Kaua’i üzerindeki Hemolele Ormanı’ndaki alışveriş merkezinin gelişmesini durduracak eski bir eser bulmak için görevlendirdi. Ekip, deneyimli ikili Helen ve Demetri’nin yanısıra, lisansüstü öğrencileri Zander ve Hermione tarafından yönetiliyor. Takım Omaka, yerli bir Hawai kahunası ve onun yaramaz yardımcısı Puka tarafından görüldü.
General
Complete name : C:\Users\ErdaL DemiR\Desktop\Bir Hawai Ruyasi - A Midsummer's Hawaiian Dream 2016 WEBRip.XviD.avi
Format : AVI
Format/Info : Audio Video Interleave
Format profile : OpenDML
File size : 1.01 GiB
Duration : 1h 18mn
Overall bit rate : 1 831 Kbps
Movie name : .
Writing application : Lavf57.57.100
Video
ID : 0
Format : MPEG-4 Visual
Format profile : Simple@L3
Format settings, BVOP : No
Format settings, QPel : No
Format settings, GMC : No warppoints
Format settings, Matrix : Default (H.263)
Codec ID : XVID
Codec ID/Hint : XviD
Duration : 1h 18mn
Bit rate : 1 686 Kbps
Width : 720 pixels
Height : 406 pixels
Display aspect ratio : 16:9
Original display aspect ratio : 16:9
Frame rate : 25.000 fps
Color space : YUV
Chroma subsampling : 4:2:0
Bit depth : 8 bits
Scan type : Progressive
Compression mode : Lossy
Bits/(Pixel*Frame) : 0.231
Stream size : 952 MiB (92%)
Writing library : XviD 67
Audio
ID : 1
Format : MPEG Audio
Format version : Version 1
Format profile : Layer 3
Codec ID : 55
Codec ID/Hint : MP3
Duration : 1h 18mn
Bit rate mode : Constant
Bit rate : 128 Kbps
Channel(s) : 2 channels
Sampling rate : 48.0 KHz
Compression mode : Lossy
Stream size : 72.3 MiB (7%)
Alignment : Aligned on interleaves
Interleave, duration : 24 ms (0.60 video frame)
Interleave, preload duration : 24 ms
The Wizard of Lies Yalanlar Büyücüsü 2017 720p WEB DL TR-ENG DUAL x264 Torrent

Genişletmek için Tıkla!
31-05-2017 14:16 , erdaldemir20 Tarafından Yüklendi.
Kaynaklar: 3 / İndirilen: 0 / Boyut: 1.46 GB / Tamamlandı: 285
Torrenti İndir  Torrenti Şikayet Et Torrent Tanımı Tanıtım Videosu
IMDB Puanı: 7.1 7.1/10
Kategori: Web-DL
http://www.imdb.com/title/tt1933667/

The Wizard of Lies Yalanlar Büyücüsü 2017 720p WEB DL DUAL TR-ENG x264
Amerika'yı geçmiş yıllarda birbirine katan milyarder dolandırıcı Bernie Madoff’u canlandıran usta oyuncu Robert De Niro'ya Michelle Pfeiffer eşlik ediyor.
Format : Matroska
Format version : Version 4 / Version 2
File size : 1.46 GiB
Duration : 2h 12mn
Overall bit rate : 1 574 Kbps
Encoded date : UTC 2017-05-30 13:07:02
Writing application : mkvmerge v11.0.0 ('Alive') 64bit
Writing library : libebml v1.3.4 + libmatroska v1.4.5
DURATION : 02:12:40.704000000
NUMBER_OF_FRAMES : 248772
NUMBER_OF_BYTES : 191056896
_STATISTICS_WRITING_APP : mkvmerge v11.0.0 ('Alive') 64bit
_STATISTICS_WRITING_DATE_UTC : 2017-05-30 13:07:02
_STATISTICS_TAGS : BPS DURATION NUMBER_OF_FRAMES NUMBER_OF_BYTES
Video
ID : 1
Format : AVC
Format/Info : Advanced Video Codec
Format profile : Main@L3.1
Format settings, CABAC : Yes
Format settings, ReFrames : 2 frames
Format settings, GOP : M=1, N=25
Codec ID : V_MPEG4/ISO/AVC
Duration : 2h 12mn
Bit rate : 1 159 Kbps
Width : 1 280 pixels
Height : 720 pixels
Display aspect ratio : 16:9
Frame rate mode : Constant
Frame rate : 23.976 fps
Color space : YUV
Chroma subsampling : 4:2:0
Bit depth : 8 bits
Scan type : Progressive
Bits/(Pixel*Frame) : 0.052
Stream size : 1.07 GiB (74%)
Default : Yes
Forced : No
Audio #1
ID : 2
Format : AC-3
Format/Info : Audio Coding 3
Mode extension : CM (complete main)
Format settings, Endianness : Big
Codec ID : A_AC3
Duration : 2h 12mn
Bit rate mode : Constant
Bit rate : 192 Kbps
Channel(s) : 2 channels
Channel positions : Front: L R
Sampling rate : 48.0 KHz
Compression mode : Lossy
Stream size : 182 MiB (12%)
Title : .
Language : Turkish
Default : Yes
Forced : No
Audio #2
ID : 3
Format : AC-3
Format/Info : Audio Coding 3
Mode extension : CM (complete main)
Format settings, Endianness : Big
Codec ID : A_AC3
Duration : 2h 12mn
Bit rate mode : Constant
Bit rate : 192 Kbps
Channel(s) : 2 channels
Channel positions : Front: L R
Sampling rate : 48.0 KHz
Compression mode : Lossy
Stream size : 182 MiB (12%)
Title : .
Language : English
Default : No
Forced : No
Lego Batman Filmi The Lego Batman Movie 2017 DUAL 1080p WEB-DL h264 AC3 Torrent

Genişletmek için Tıkla!
30-05-2017 17:17 , UtkuGARIP Tarafından Yüklendi.
Kaynaklar: 5 / İndirilen: 0 / Boyut: 3.83 GB / Tamamlandı: 246
Torrenti İndir  Torrenti Şikayet Et Torrent Tanımı Tanıtım Videosu
IMDB Puanı: 7.5 7.5/10
Kategori: Web-DL
http://www.imdb.com/title/tt4116284/

Lego Batman Filmi The Lego Batman Movie 2017 DUAL 1080p WEB-DL h264 AC3








Türkçe Altyazı
English Subtitle



Sakin ve durağan bir hayat süren Batman kocaman evinde tembellik ederken yeni yardımcıları Robin ve Batgirl'ün ortaya çıkmasıyla işler değişir. Ekip henüz birbirine alışamadan Joker'in hain bir planla Gotham'ı tehdit ettiği haberi duyulunca, taze ekip birleşmek zorunda kalacaktır. Batman'in artık sadece kendinden değil, evlat edindiği oğlundan da sorumlu olması işleri daha da zorlaştırır..
Başarılı animasyon Lego Filmi'nin Batman'li spin off'u olan projede yönetmen koltuğuna Chris McKay otururken, senaryo Seth Grahame-Smith'e ait.



Genişlet PHP:


Format 
Matroska at 5 249 kb/s
Length 
3.83 GiB for 1 s 44dk 28s 143 ms
Video 
#0 : AVC at 4 478 kb/s
Aspect 1912 x 792 (2.414at 23.976 fps
Audio 
#0 : AC-3 at 384 kb/s
Infos 6 kanal48.0 kHz
Language 
en
Audio 
#1 : AC-3 at 384 kb/s
Infos 6 kanal48.0 kHz
Language 
tr
Text 
#0 : UTF-8
Language en
Text 
#1 : UTF-8
Language tr






İçerde Bolum 36 Sansursuz 1080p WEBRip x264 AC3 NOVA Torrent

Genişletmek için Tıkla!
30-05-2017 12:50 , DariusRz Tarafından Yüklendi.
Kaynaklar: 0 / İndirilen: 0 / Boyut: 2.04 GB / Tamamlandı: 359
Torrenti İndir  Torrenti Şikayet Et Torrent Tanımı
Kategori: Web-DL

İçerde Bolum 36 Sansursuz 1080p WEBRip x264 AC3 NOVA
Format : Matroska at 2 185 kb/s
Length : 2.04 GiB for 2 s 13dk 56s 512 ms
Video #0 : AVC at 2 000 kb/s
Aspect : 1920 x 1080 (1.778) at 23.976 fps
Audio #0 : AC-3 at 192 kb/s
Infos : 2 kanal, 48.0 kHz
Turk Mali Bolum 01 1080p Web-Rip x264 AC3 NOVA Torrent

Genişletmek için Tıkla!
29-05-2017 12:54 , DariusRz Tarafından Yüklendi.
Kaynaklar: 4 / İndirilen: 0 / Boyut: 1.98 GB / Tamamlandı: 201
Torrenti İndir  Torrenti Şikayet Et Torrent Tanımı
Kategori: Web-DL

Turk Mali Bolum 01 1080p Web-Rip x264 AC3 NOVA
Format : Matroska at 2 187 kb/s
Length : 1.98 GiB for 2 s 9dk 20s 920 ms
Video #0 : AVC at 1 999 kb/s
Aspect : 1920 x 1080 (1.778) at 23.976 fps
Audio #0 : AC-3 at 192 kb/s
Infos : 2 kanal, 44.1 kHz
Payitaht Abdulhamid Bolum 13 1080p Web-Dl x264 AC3 Torrent

Genişletmek için Tıkla!
29-05-2017 12:45 , monalisa Tarafından Yüklendi.
Kaynaklar: 2 / İndirilen: 0 / Boyut: 2.62 GB / Tamamlandı: 51
Torrenti İndir  Torrenti Şikayet Et Torrent Tanımı
Kategori: Web-DL

Payitaht Abdulhamid Bolum 13 1080p Web-Dl x264 AC3
Payitaht Abdülhamid yayınlanan 13. bölüm fragmanıyla izleyicilerine heyecan seviyesi yüksek dakikalar yaşatacak. Tarih dolu konusuyla izleyicileri ekran başına kilitleyen Payitaht Abdülhamid yeni bölümüyle cuma akşamı ekranlarda olacak. Dizinin yayınlanacak olan yeni bölümünde Sultan Abdülhamid'in hedefinde düşmanın başı var, İngiltere Kraliçesi.
Format : Matroska at 2 700 kb/s
Length : 2.62 GiB for 2 h 19 min 0 s 375 ms
Video #0 : AVC
Aspect : 1920 x 1080 (1.778) at 25.000 fps
Audio #0 : AAC
Infos : 2 channels, 44.1 kHz
Joshua Super Guce Direnen Genc Joshua Teenager vs Superpower 2017 NF Web-Rip 720p TR x264 NOVA Torrent

Genişletmek için Tıkla!
29-05-2017 12:06 , DariusRz Tarafından Yüklendi.
Kaynaklar: 0 / İndirilen: 0 / Boyut: 3.05 GB / Tamamlandı: 66
Torrenti İndir  Torrenti Şikayet Et Torrent Tanımı Tanıtım Videosu
IMDB Puanı: 7.5 7.5/10
Kategori: Web-DL
http://www.imdb.com/title/tt6333072/

Joshua Super Guce Direnen Genc Joshua Teenager vs Superpower 2017 NF Web-Rip 720p TR x264 NOVA
Genc aktivist Joshua Won tarafindan harekete gecirilen Hong Kong`un genc vatandaslari Cin`e karsi ozelliklerini koruma icin sokaklara dokuluyor / DariusRz NETFLIX
Format : Matroska at 5 554 kb/s
Length : 3.05 GiB for 1 s 18dk 45s 280 ms
Video #0 : AVC at 5 450 kb/s
Aspect : 1280 x 720 (1.778) at 23.976 fps
Audio #0 : AC-3 at 192 kb/s
Infos : 2 kanal, 48.0 kHz
Language : tr
Kor Ember 2016 Sansürsüz 720p WEBRip Xvid Torrent

Genişletmek için Tıkla!
28-05-2017 13:06 , UtkuGARIP Tarafından Yüklendi.
Kaynaklar: 6 / İndirilen: 0 / Boyut: 992.49 MB / Tamamlandı: 341
Torrenti İndir  Torrenti Şikayet Et Torrent Tanımı Tanıtım Videosu
IMDB Puanı: 6.4 6.4/10
Kategori: Web-DL
http://www.imdb.com/title/tt5599818/

Kor Ember 2016 Sansürsüz 720p WEBRip Xvid









Kocası Cemal'in Romanya'ya kaçak işçi olarak gitmesinin ardından evde giysi dikerek geçimini sağlayan Emine, bir giyim atölyesinde eski patronu Ziya ile karşılaşır. Ziya, Emine'nin durumunu görüp ona yardım eli uzatır; bu arada ikilinin arasındaki ilişkinin seyri de değişir. Ancak bir süre sonra Cemal, Romanya'dan döner. Üç kişinin de hayatı dönüşü olmayacak şekilde değişecektir.
Yönetmenliğini ve senaristliğini Zeki Demirkubuz'un üstlendiği Kor, "aşkın ve ihanetin gayya kuyusu"nu beyazperdeye taşıyor. Filmin başrollerinde Aslıhan Gürbüz, Taner Birsel, Caner Cindoruk ve İştar Gökseven yer alırken kadroda kendilerine Çağlar Çorumlu, Dolunay Soysert, Talha Yayıkçı ve Berat Özdemir de eşlik ediyor.





Genişlet PHP:


Format 
Matroska at 1 279 kb/s
Length 
992 MiB for 1 s 48dk 28s 85 ms
Video 
#0 : MPEG-4 Visual at 1 082 kb/s
Aspect 1280 x 720 (1.778at 23.976 fps
Audio 
#0 : MPEG Audio at 192 kb/s
Infos 2 kanal44.1 kHz
Language 
tr






Tek Çare Kazanmak Win It All 2017 TR NF 1080p WebRip x264 AC3 NOVA Torrent

Genişletmek için Tıkla!
28-05-2017 12:22 , TURKNOVA Tarafından Yüklendi.
Kaynaklar: 0 / İndirilen: 0 / Boyut: 6.38 GB / Tamamlandı: 91
Torrenti İndir  Torrenti Şikayet Et Torrent Tanımı Tanıtım Videosu
IMDB Puanı: 6.3 6.3/10
Kategori: Web-DL
Anonim Yükleyicihttp://www.imdb.com/title/tt3155328/

Tek Çare Kazanmak Win It All 2017 TR NF 1080p WebRip x264 AC3 NOVA

İyi bir iş ve iyi kız arkadaş bulup eziklikten kurtuldu belki ama çözülmesi gereken 50.000 dolarlık bir sorunu var.Kendine ait olmayan 50.000 doları kumarda kaybeden Eddie, hayatını yeniden kurmaya başlamıştır. Ama kötü bir sürpriz onu eski bağımlılığına doğru iter.

Format : Matroska at 10.3 Mb/s
Length : 6.38 GiB for 1 s 28dk 58s 36 ms
Video #0 : AVC at 9 877 kb/s
Aspect : 1920 x 818 (2.347) at 23.976 fps
Audio #0 : AC-3 at 384 kb/s
Infos : 6 kanal, 44.1 kHz
Language : tr

Tek Çare Kazanmak Win It All 2017 TR NF 720p WebRip x264 AC3 NOVA Torrent

Genişletmek için Tıkla!
28-05-2017 12:22 , TURKNOVA Tarafından Yüklendi.
Kaynaklar: 2 / İndirilen: 0 / Boyut: 3.31 GB / Tamamlandı: 185
Torrenti İndir  Torrenti Şikayet Et Torrent Tanımı Tanıtım Videosu
IMDB Puanı: 6.3 6.3/10
Kategori: Web-DL
Anonim Yükleyicihttp://www.imdb.com/title/tt3155328/

Tek Çare Kazanmak Win It All 2017 TR NF 720p WebRip x264 AC3 NOVA

İyi bir iş ve iyi kız arkadaş bulup eziklikten kurtuldu belki ama çözülmesi gereken 50.000 dolarlık bir sorunu var.Kendine ait olmayan 50.000 doları kumarda kaybeden Eddie, hayatını yeniden kurmaya başlamıştır. Ama kötü bir sürpriz onu eski bağımlılığına doğru iter.

Format : Matroska at 5 325 kb/s
Length : 3.31 GiB for 1 s 28dk 58s 36 ms
Video #0 : AVC at 4 939 kb/s
Aspect : 1280 x 544 (2.353) at 23.976 fps
Audio #0 : AC-3 at 384 kb/s
Infos : 6 kanal, 44.1 kHz
Language : tr

Berlin Syndrome 2017 TRSub 1080p WEB-DL DD5.1 H264 Torrent

Genişletmek için Tıkla!
28-05-2017 00:22 , monalisa Tarafından Yüklendi.
Kaynaklar: 3 / İndirilen: 0 / Boyut: 4 GB / Tamamlandı: 91
Torrenti İndir  Torrenti Şikayet Et Torrent Tanımı Tanıtım Videosu
IMDB Puanı: 6.7 6.7/10
Kategori: Web-DL
http://www.imdb.com/title/tt3335606/

Berlin Syndrome 2017 TRSub 1080p WEB-DL DD5.1 H264
Avusturyalı foto muhabiri olan Clare Almanya’daki Sovyet mimarisini fotoğraflayıp bir kitap yayınlamak için Berlin’e gelir. Andi, Berlin’de tatil yaparken bir beden eğitimi okulunda İngilizce öğretmeni olan karizmatik Andi tanışır. Kısa sürede birbirlerine karşı güçlü bir çekim hissetmeye başlarlar. Tutkulu bir gecenin ardından romantik bir başlangıç yaşanmış gibi görünmesine rağmen, Clare uyandığında kendini Andi’nin apartman dairesinde kilitli bulur. Bunun bir unutkanlık sonucu olduğunu zanneden Clare'in bilmediği şey ise Andi’nin onu bırakmaya hiç niyeti yoktur...
Format : Matroska at 4 939 kb/s
Length : 4.00 GiB for 1 h 55 min 57 s 216 ms
Video #0 : AVC at 4 457 kb/s
Aspect : 1920 x 792 (2.424) at 24.000 fps
Audio #0 : AC-3 at 384 kb/s
Infos : 6 channels, 48.0 kHz
Language : en
Text #0 : UTF-8
Language : en
Text #1 : UTF-8
Language : en
Black Butterfly 2017 TRSub 1080p WEB-DL DD5.1 x264 Torrent

Genişletmek için Tıkla!
27-05-2017 20:38 , monalisa Tarafından Yüklendi.
Kaynaklar: 2 / İndirilen: 0 / Boyut: 3.22 GB / Tamamlandı: 112
Torrenti İndir  Torrenti Şikayet Et Torrent Tanımı Tanıtım Videosu
IMDB Puanı: 6.4 6.4/10
Kategori: Web-DL
http://www.imdb.com/title/tt2090465/

Black Butterfly 2017 TRSub 1080p WEB-DL DD5.1 x264
Herve Korian'ın Papillon Noir adlı Fransız gerilim filminin yeniden çekiminde Banderas, başarısızlığa uğramış bir senarist Paul'u canlandırıyor. Kariyerini kurtaracak bir senaryoya başlamayı umut eden Paul, bir mekanda gergin bir karşılaşma sonucu tanıştığı avare bir adam olan Jack'e(Rhys Meyers) kalacak yer olarak evini önerir. Ancak, çılgın yabancı Jack, Paul'u rehin alır ve onu yazmaya zorlar. İki adam en azından bir hikayeyi sonuna kadar getirecek bir puslu oyun oynamaya başlar. Bu karmaşık ilişki karanlıkta gömülü sırları da açığa çıkaracaktır.
Filmin yönetmen koltuğunda What Doesn't Kill You (2008) filminin yönetmeni olan Brian Goodman otururken filmin senaryosunu ise Marc Frydman ile Justin Stanley kaleme aldı.
Format : Matroska at 4 949 kb/s
Length : 3.22 GiB for 1 h 33 min 13 s 984 ms
Video #0 : AVC at 4 467 kb/s
Aspect : 1908 x 792 (2.409) at 23.976 fps
Audio #0 : AC-3 at 384 kb/s
Infos : 6 channels, 48.0 kHz
Language : en
Text #0 : UTF-8
Language : en
Savas Makinesi War Machine 2017 NF WEBRip 720p DTS DUAL TR ENG x264 NOVA Torrent

Genişletmek için Tıkla!
27-05-2017 17:39 , DariusRz Tarafından Yüklendi.
Kaynaklar: 5 / İndirilen: 0 / Boyut: 2.53 GB / Tamamlandı: 508
Torrenti İndir  Torrenti Şikayet Et Torrent Tanımı Tanıtım Videosu
IMDB Puanı: 6.1 6.1/10
Kategori: Web-DL
http://www.imdb.com/title/tt4758646/

Savas Makinesi War Machine 2017 NF WEBRip 720p DTS DUAL TR ENG x264 NOVA
Günümüzün savaşlarla dolu dünyasında, yazar ve yönetmen David Michôd üst düzey bir Amerikan askerinin inişli çıkışlı hayat hikayesini kâh tüm gerçekliğiyle, kâh acımasız bir parodi tadında ekranlara taşırken, gerçeğin ve parodinin nerede başlayıp nerede bittiğini de tartışmaya açıyor. Filmde gözünü karartıp kendini çılgın bir savaşın ortasına atan, doğuştan lider karakterli, kendine sonsuz güveni olan bir asker; Michôd’nun absürt bakış açısıyla anlatılıyor. Hikâyenin merkezinde, Brad Pitt’in hayat verdiği gelmiş geçmiş en uç savaş karakterlerinden biri yer alıyor: başarılı ve karizmatik orgeneral Stanley McChrystal. Afganistan’daki NATO güçlerine adeta bir rock star gibi giriş yapan orgeneralin tüm karizması bir gazetecinin sınır tanımayan makalesiyle yıkılacaktır.
Format : Matroska at 2 948 kb/s
Length : 2.53 GiB for 2 s 2dk 38s 624 ms
Video #0 : AVC at 2 000 kb/s
Aspect : 1280 x 720 (1.778) at 23.976 fps
Audio #0 : AC-3 at 640 kb/s
Infos : 6 kanal, 48.0 kHz
Language : tr
Audio #1 : E-AC-3 at 384 kb/s
Infos : 6 kanal, 48.0 kHz
Language : en
Slam 2017 720p WEB-DL TR x264 AC3 Torrent

Genişletmek için Tıkla!
26-05-2017 19:20 , DariusRz Tarafından Yüklendi.
Kaynaklar: 1 / İndirilen: 0 / Boyut: 2.08 GB / Tamamlandı: 89
Torrenti İndir  Torrenti Şikayet Et Torrent Tanımı
Kategori: Web-DL

Slam 2017 720p WEB-DL TR x264 AC3
Baba olmaya hazırlanan ergen Sam, genç bir ebeveyn olarak geleceğini düşünür ve idolü olan profesyonel kaykacı Tony Hawk ile ilgili okurken sürpriz bir akıl hocası bulur.
Format : Matroska at 3 017 kb/s
Length : 2.08 GiB for 1 s 38dk 56s 320 ms
Video #0 : AVC at 2 791 kb/s
Aspect : 1280 x 720 (1.778) at 25.000 fps
Audio #0 : AC-3 at 224 kb/s
Infos : 2 kanal, 48.0 kHz
Language : tr
Kiz Arkaslar Gunu Girlfriends Day 2017 720p WEB-DL DUAL TR ENG x264 AC3 Torrent

Genişletmek için Tıkla!
26-05-2017 19:20 , DariusRz Tarafından Yüklendi.
Kaynaklar: 3 / İndirilen: 0 / Boyut: 1.03 GB / Tamamlandı: 118
Torrenti İndir  Torrenti Şikayet Et Torrent Tanımı Tanıtım Videosu
IMDB Puanı: 5.3 5.3/10
Kategori: Web-DL
http://www.imdb.com/title/tt2962984/

Kiz Arkaslar Gunu Girlfriends Day 2017 720p WEB-DL DUAL TR ENG x264 AC3
Kız Arkadaş Günü temalı bir etkinlikte en romantik kartı yazacak kişi aranıyordur.Romantik kartları ile ünlenmiş mutsuz bir adam olan Ray Wentworthun bu etkinliğe katılması bekleniyordur.Etkinliğe katılarak farklı bir heyecan arayan Ray hiç beklemediği olaylarla karşılaşır.Cinayetlerin ortasında kalmıştır.
Format : Matroska at 1 841 kb/s
Length : 1.03 GiB for 1 s 20dk 5s 0 ms
Video #0 : AVC at 1 637 kb/s
Aspect : 1280 x 720 (1.778) at 23.976 fps
Audio #0 : AC-3 at 224 kb/s
Infos : 2 kanal, 48.0 kHz
Language : tr
Audio #1 : AC-3 at 224 kb/s
Infos : 2 kanal, 48.0 kHz
Darphane Soygunu Coin Heist 2017 720p WEB-DL DUAL TR ENG x264 AC3 Torrent

Genişletmek için Tıkla!
26-05-2017 19:20 , DariusRz Tarafından Yüklendi.
Kaynaklar: 3 / İndirilen: 0 / Boyut: 2.63 GB / Tamamlandı: 193
Torrenti İndir  Torrenti Şikayet Et Torrent Tanımı Tanıtım Videosu
IMDB Puanı: 4.8 4.8/10
Kategori: Web-DL
http://www.imdb.com/title/tt5740806/

Darphane Soygunu Coin Heist 2017 720p WEB-DL DUAL TR ENG x264 AC3
Philadelphia'da bir hazırlık okulunda öğrenim gören Hacker, tembel, atlet ve gayretli dört talebe beraber olanaksızı tecrübe etmek için bir araya gelerek AMERİKA BİRLEŞİK DEVLETLERİ Darphane'sinden kötü koşullar altında para çalmaya çalmaya niyet ederler
Format : Matroska at 3 856 kb/s
Length : 2.63 GiB for 1 s 37dk 44s 288 ms
Video #0 : AVC at 3 406 kb/s
Aspect : 1280 x 720 (1.778) at 23.976 fps
Audio #0 : AC-3 at 224 kb/s
Infos : 2 kanal, 48.0 kHz
Language : tr
Audio #1 : AC-3 at 224 kb/s
Infos : 2 kanal, 48.0 kHz
Son Konser Take the 10 2017 720p WEB-DL DUAL TR ENG x264 AC3 Torrent

Genişletmek için Tıkla!
26-05-2017 19:20 , DariusRz Tarafından Yüklendi.
Kaynaklar: 2 / İndirilen: 0 / Boyut: 2.05 GB / Tamamlandı: 77
Torrenti İndir  Torrenti Şikayet Et Torrent Tanımı Tanıtım Videosu
IMDB Puanı: 4.9 4.9/10
Kategori: Web-DL
http://www.imdb.com/title/tt5792472/

Son Konser Take the 10 2017 720p WEB-DL DUAL TR ENG x264 AC3
Bir süper markette kasiyor olarak çalışan iki kafadar, hayarlarının en iyi hip-hop konserine gidebilmek için sahte konser biletleri ayarlarlar, bir uyuşturucu satıcusu ve craigslist felaketi ile başlarına gelmeyen kalmaz.
Format : Matroska at 3 660 kb/s
Length : 2.05 GiB for 1 s 20dk 9s 248 ms
Video #0 : AVC at 3 210 kb/s
Aspect : 1280 x 720 (1.778) at 23.976 fps
Audio #0 : AC-3 at 224 kb/s
Infos : 2 kanal, 48.0 kHz
Language : tr
Audio #1 : AC-3 at 224 kb/s
Infos : 2 kanal, 48.0 kHz
Hepsini Vur Shoot'em Up 2007 1080p Web-Rip AC3 DUAL TR ENG x264 Torrent

Genişletmek için Tıkla!
25-05-2017 19:46 , monalisa Tarafından Yüklendi.
Kaynaklar: 3 / İndirilen: 0 / Boyut: 4.48 GB / Tamamlandı: 187
Torrenti İndir  Torrenti Şikayet Et Torrent Tanımı Tanıtım Videosu
IMDB Puanı: 6.7 6.7/10
Kategori: Web-DL
http://www.imdb.com/title/tt0465602/

Hepsini Vur Shoot'em Up 2007 1080p Web-Rip AC3 DUAL TR ENG x264


Shoot Em Up - Hepsini Vur karanlık bir mizah anlayışı olan, izleyicileri dur durak bilmeyen yüksek tempolu bir maceraya sürüklemeyi vaat eden, oldukça sıradışı ve yaratıcı bir aksiyon filmi. Clive Owen, dünyanın en sinirli ve sert mizaçlı adamıyken kendisini dünyadaki en masum şeyi yani yeni doğmuş bir bebeği korumakla yükümlü bulan Bay Smith’i canlandırıyor.



Format : Matroska at 7 410 kb/s
Length : 4.48 GiB for 1 h 26 min 32 s 229 ms
Video #0 : AVC at 6 788 kb/s
Aspect : 1920 x 816 (2.353) at 23.976 fps
Audio #0 : AC-3 at 192 kb/s
Infos : 2 channels, 48.0 kHz
Language : tr
Audio #1 : AC-3 at 448 kb/s
Infos : 6 channels, 48.0 kHz
Language : en
Text #0 : UTF-8
Language : en

Boyka Yenilmez IV Boyka Undisputed IV 2016 TRSub1080p WEBRip AAC 2.0 x264-FGT Torrent

Genişletmek için Tıkla!
24-05-2017 23:14 , monalisa Tarafından Yüklendi.
Kaynaklar: 6 / İndirilen: 0 / Boyut: 4.78 GB / Tamamlandı: 274
Torrenti İndir  Torrenti Şikayet Et Torrent Tanımı Tanıtım Videosu
IMDB Puanı: 7.4 7.4/10
Kategori: Web-DL
http://www.imdb.com/title/tt3344680/

Boyka Yenilmez IV Boyka Undisputed IV 2016 TRSub1080p WEBRip AAC 2.0 x264-FGT
Acımasız dövüşçü Scott Adkins Boyka: Undisputed serinin 4. filmiyle sevenleriyle buluşuyor. Artık kendisine daha yüksek ligleri hedef tutmakta, dünyaca ünlü bir boksör olmak istemektedir. Ringde çıktığı son maçta ölümcül bir darbe aldığında hayatını sorgulamaya başlar. Ne için bu kadar canını tehlikeye attığını düşünen Boyka ölüm ile yaşam arasında bir yol seçmek zorundadır..
Format : Matroska at 7 522 kb/s
Length : 4.52 GiB for 1 h 26 min 4 s 280 ms
Video #0 : AVC
Aspect : 1920 x 1080 (1.778) at 25.000 fps
Audio #0 : AAC
Infos : 2 channels, 48.0 kHz
Language : en
Bu Benim Dunyam Degil I Dont Feel at Home in This World Anymore 2017 720p WEB-DL DUAL TR ENG x264 AC3 Torrent

Genişletmek için Tıkla!
24-05-2017 14:43 , DariusRz Tarafından Yüklendi.
Kaynaklar: 2 / İndirilen: 1 / Boyut: 3.1 GB / Tamamlandı: 125
Torrenti İndir  Torrenti Şikayet Et Torrent Tanımı Tanıtım Videosu
IMDB Puanı: 7.0 7.0/10
Kategori: Web-DL
http://www.imdb.com/title/tt5710514/

Bu Benim Dunyam Degil I Dont Feel at Home in This World Anymore 2017 720p WEB-DL DUAL TR ENG x264 AC3
Format : Matroska at 4 578 kb/s
Length : 3.10 GiB for 1 s 36dk 58s 201 ms
Video #0 : AVC at 4 192 kb/s
Aspect : 1280 x 720 (1.778) at 23.976 fps
Audio #0 : AC-3 at 192 kb/s
Infos : 2 kanal, 44.1 kHz
Language : tr
Audio #1 : AC-3 at 192 kb/s
Infos : 2 kanal, 44.1 kHz
Language : en
Söz Bolum 08 720p WebRip x264 AC3 NOVA Torrent

Genişletmek için Tıkla!
24-05-2017 14:04 , TURKNOVA Tarafından Yüklendi.
Kaynaklar: 1 / İndirilen: 0 / Boyut: 2.01 GB / Tamamlandı: 234
Torrenti İndir  Torrenti Şikayet Et Torrent Tanımı
Kategori: Web-DL
Anonim Yükleyici

Söz Bolum 08 720p WebRip x264 AC3 NOVA

*********************************************
*********************************************
Format : Matroska at 2 199 kb/s
Length : 2.01 GiB for 2 s 10dk 54s 178 ms
Video #0 : AVC at 1 963 kb/s
Aspect : 1280 x 720 (1.778) at 25.000 fps
Audio #0 : AC-3 at 192 kb/s
Infos : 2 kanal, 44.1 kHz
*********************************************
*********************************************
Mars Jenerasyonu The Mars Generation 2017 720p WEB-DL DUAL TR ENG x264 AC3 Torrent

Genişletmek için Tıkla!
24-05-2017 12:19 , DariusRz Tarafından Yüklendi.
Kaynaklar: 9 / İndirilen: 0 / Boyut: 2.77 GB / Tamamlandı: 201
Torrenti İndir  Torrenti Şikayet Et Torrent Tanımı Tanıtım Videosu
IMDB Puanı: 6.7 6.7/10
Kategori: Web-DL
http://www.imdb.com/title/tt6333096/

Mars Jenerasyonu The Mars Generation 2017 720p WEB-DL DUAL TR ENG x264 AC3
Uzay kampindaki "uzay inekleri" bir gün Mars`a seyahatin mümkün olacagina inanip hayellerinin pesinden kosarken uzmanlar NASA`nin gecmisi ve gelecegi hakkinda konusuyor.
Format : Matroska at 4 059 kb/s
Length : 2.77 GiB for 1 s 37dk 41s 331 ms
Video #0 : AVC at 3 673 kb/s
Aspect : 1280 x 720 (1.778) at 23.976 fps
Audio #0 : AC-3 at 192 kb/s
Infos : 2 kanal, 44.1 kHz
Language : tr
Audio #1 : AC-3 at 192 kb/s
Infos : 2 kanal, 44.1 kHz
Language : en
Dag 2 2016 Sansursuz 1080p Web-DL AC3 x264 SB Torrent

Genişletmek için Tıkla!
24-05-2017 00:31 , DariusRz Tarafından Yüklendi.
Kaynaklar: 17 / İndirilen: 0 / Boyut: 4.6 GB / Tamamlandı: 1,071
Torrenti İndir  Torrenti Şikayet Et Torrent Tanımı Tanıtım Videosu
IMDB Puanı: 9.8 9.8/10
Kategori: Web-DL
http://www.imdb.com/title/tt5813916/

Dag 2 2016 Sansursuz 1080p Web-DL AC3 x264 SB
Dağ II, yönetmenliğini ve senaristliğini Alper Çağlar’ın yaptığı 2016 yapımı aksiyon, savaş ve dram filmidir. 2012'de vizyona giren Dağ filminin devamıdır. 4 Kasım 2016 tarihinde gösterime girmiştir
Format : Matroska at 4 899 kb/s
Length : 4.60 GiB for 2 s 14dk 23s 296 ms
Video #0 : AVC at 4 513 kb/s
Aspect : 1912 x 800 (2.390) at 24.000 fps
Audio #0 : AC-3 at 384 kb/s
Infos : 6 kanal, 48.0 kHz
Language : tr
10. Köy Teyatora 2014 720p WEB-DL H.264 AAC Torrent

Genişletmek için Tıkla!
23-05-2017 20:42 , UtkuGARIP Tarafından Yüklendi.
Kaynaklar: 3 / İndirilen: 0 / Boyut: 1.03 GB / Tamamlandı: 280
Torrenti İndir  Torrenti Şikayet Et Torrent Tanımı Tanıtım Videosu
IMDB Puanı: 4.1 4.1/10
Kategori: Web-DL
http://www.imdb.com/title/tt3746926/

10. Köy Teyatora 2014 720p WEB-DL H.264 AAC
Şarap ve tiyatronun temsilcisi Dionysos’un yaşadığı "10. Köy"e yolları düşen bir öğretmen ve bir tiyatro kumpanyası, burada garip durumların olduğunu ve köylülerin garip konuşmalar yaptıklarını fark ederler. Çünkü bu köyde henüz yalan keşfedilmemiştir. Yalnızca aklından ya da kalbinden ne geçiyorsa onu söylemektedirler. Öğretmen köy okulunda göreve başlarken, kumpanya elemanları da Dionysos adına canlandırmak istedikleri bir gösterimi ahaliye kabul ettirmek isterler. Yüzyıllardır "10. Köy"de insanlarla yaşayan ve burada yalan söylenmesini yasaklayan Dionysos'da etrafı gizliden gizliye izleyerek bazı olaylara müdahale etmektedir. Yaşanan olaylar birbirini kovalar, köylüler gelenlerle kaynaşmaya başlarlar ve ortaya komik, düşündürücü durumlar çıkar. Bu köyün en renkli yanı , bünyesinde barındırdığı köylülerin birbirinden ilginç ve keyifli hikayeleridir. Ve elbette "Aşk" bütün bunların tam merkezindedir.
Genişlet PHP:


Format 
MPEG-4 at 1 763 kb/s
Length 
1.03 GiB for 1 s 23dk 33s 189 ms
Video 
#0 : AVC at 1 629 kb/s
Aspect 1280 x 720 (1.778at 23.976 fps
Audio 
#0 : AAC at 126 kb/s
Infos 2 kanal44.1 kHz
John Wick Chapter 2 2017 1080p WEB-DL DUAL TR ENG x264 AC3 EVO Torrent

Genişletmek için Tıkla!
23-05-2017 20:09 , DariusRz Tarafından Yüklendi.
Kaynaklar: 11 / İndirilen: 5 / Boyut: 4.36 GB / Tamamlandı: 1,162
Torrenti İndir  Torrenti Şikayet Et Torrent Tanımı Tanıtım Videosu
IMDB Puanı: 8.1 8.1/10
Kategori: Web-DL
http://www.imdb.com/title/tt4425200/

John Wick Chapter 2 2017 1080p WEB-DL DUAL TR ENG x264 AC3 EVO
John Wick 2017 yapımı, yönetmenliğini Chad Stahelski'nin, senaristliğini de Derek Kolstad'ın üstlendiği Amerikan, aksiyon filmi
Format : Matroska at 5 310 kb/s
Length : 4.36 GiB for 1 s 57dk 30s 208 ms
Video #0 : AVC at 4 540 kb/s
Aspect : 1916 x 796 (2.407) at 25.000 fps
Audio #0 : AC-3 at 384 kb/s
Infos : 6 kanal, 48.0 kHz
Language : en
Audio #1 : AC-3 at 384 kb/s
Infos : 6 kanal, 48.0 kHz
Language : tr
Klinik Clinical 2017 NF 720p WEB-DL TR x264 AC3 Torrent

Genişletmek için Tıkla!
23-05-2017 11:44 , DariusRz Tarafından Yüklendi.
Kaynaklar: 2 / İndirilen: 0 / Boyut: 1.74 GB / Tamamlandı: 123
Torrenti İndir  Torrenti Şikayet Et Torrent Tanımı Tanıtım Videosu
IMDB Puanı: 5.1 5.1/10
Kategori: Web-DL
http://www.imdb.com/title/tt5577742/

Klinik Clinical 2017 NF 720p WEB-DL TR x264 AC3
Bir kaza sonucu taninmayacak hale gelen yeni hastasini tedavi eden psikiyatrist, sürekli olarak korkunc bir saldiriyi hatirlar / DariusRz
Format : Matroska at 2 388 kb/s
Length : 1.74 GiB for 1 s 44dk 17s 800 ms
Video #0 : AVC at 2 194 kb/s
Aspect : 1280 x 720 (1.778) at 23.976 fps
Audio #0 : AC-3 at 192 kb/s
Infos : 2 kanal, 44.1 kHz
İçerde Bolum 35 Sansursuz 1080p WEBRip x264 AC3 NOVA Torrent

Genişletmek için Tıkla!
23-05-2017 10:54 , DariusRz Tarafından Yüklendi.
Kaynaklar: 2 / İndirilen: 0 / Boyut: 1.53 GB / Tamamlandı: 532
Torrenti İndir  Torrenti Şikayet Et Torrent Tanımı
Kategori: Web-DL

İçerde Bolum 35 Sansursuz 1080p WEBRip x264 AC3 NOVA
Format : Matroska at 1 705 kb/s
Length : 1.53 GiB for 2 s 8dk 23s 762 ms
Aspect : 1920 x 1080 (1.778) at 25.000 fps
Audio #0 : AC-3 at 192 kb/s
Infos : 2 kanal, 44.1 kHz
Fi Bölüm 09 1080p WebRip x264 AC3 NOVA Torrent

Genişletmek için Tıkla!
20-05-2017 11:26 , mornit Tarafından Yüklendi.
Kaynaklar: 7 / İndirilen: 0 / Boyut: 1.53 GB / Tamamlandı: 1,362
Torrenti İndir  Torrenti Şikayet Et Torrent Tanımı
Kategori: Web-DL

Fi Bolum 09 1080p WebRip x264 AC3 NOVA




Bir adam bir kadını sever ve dünya değişir. Ama hayatı kökten değiştiren, aşkı değil, aşkına ulaşabilmek için cesaret edebildikleridir. O kişiye duyduğu aşkın acımasızlığında öylesine büyük fırtınalar başlatır ki, sonunda, dokunduğu her şeyi yıkar. Ve bazen... Hayatın kendini yenilemesi için önce her şeyin yıkılması şarttır.


Format: Matroska at 3 153 kb/s
Length : 1.45 GiB for 1 s 5dk 39s 776 ms
Video #0 : AVC at 3 000 kb/s
Aspect : 1920 x 1080 (1.778) at 25.000 fps
Audio #0 : AC-3 at 192 kb/s
Infos : 1 kanal, 48.0 kHz



Fi Bölüm 08 1080p WebRip x264 AC3 NOVA Torrent

Genişletmek için Tıkla!
20-05-2017 02:48 , mornit Tarafından Yüklendi.
Kaynaklar: 5 / İndirilen: 0 / Boyut: 1.56 GB / Tamamlandı: 1,354
Torrenti İndir  Torrenti Şikayet Et Torrent Tanımı
Kategori: Web-DL

Fi Bolum 08 1080p WebRip x264 AC3 NOVA




Bir adam bir kadını sever ve dünya değişir. Ama hayatı kökten değiştiren, aşkı değil, aşkına ulaşabilmek için cesaret edebildikleridir. O kişiye duyduğu aşkın acımasızlığında öylesine büyük fırtınalar başlatır ki, sonunda, dokunduğu her şeyi yıkar. Ve bazen... Hayatın kendini yenilemesi için önce her şeyin yıkılması şarttır.


Format: Matroska at 3 153 kb/s
Length : 1.45 GiB for 1 s 5dk 39s 776 ms
Video #0 : AVC at 3 000 kb/s
Aspect : 1920 x 1080 (1.778) at 25.000 fps
Audio #0 : AC-3 at 192 kb/s
Infos : 1 kanal, 48.0 kHz



Dirilis ''Ertugrul'' Bolum 88 1080p WebRip x264 AC3 NOVA Torrent

Genişletmek için Tıkla!
19-05-2017 15:52 , TURKNOVA Tarafından Yüklendi.
Kaynaklar: 0 / İndirilen: 0 / Boyut: 3.16 GB / Tamamlandı: 97
Torrenti İndir  Torrenti Şikayet Et Torrent Tanımı
Kategori: Web-DL
Anonim Yükleyici

Dirilis ''Ertugrul'' Bolum 88 1080p WebRip x264 AC3 NOVA

Format : Matroska at 3 159 kb/s
Length : 3.16 GiB for 2 s 23dk 13s 152 ms
Video #0 : AVC at 3 000 kb/s
Aspect : 1920 x 1080 (1.778) at 25.000 fps
Audio #0 : AC-3 at 192 kb/s
Infos : 2 kanal, 48.0 kHz
Dirilis ''Ertugrul'' Bolum 88 720p WebRip x264 AC3 NOVA Torrent

Genişletmek için Tıkla!
19-05-2017 15:51 , TURKNOVA Tarafından Yüklendi.
Kaynaklar: 1 / İndirilen: 0 / Boyut: 2.18 GB / Tamamlandı: 187
Torrenti İndir  Torrenti Şikayet Et Torrent Tanımı
Kategori: Web-DL
Anonim Yükleyici

Dirilis ''Ertugrul'' Bolum 88 720p WebRip x264 AC3 NOVA

Format : Matroska at 2 176 kb/s
Length : 2.18 GiB for 2 s 23dk 13s 152 ms
Video #0 : AVC at 2 000 kb/s
Aspect : 1280 x 720 (1.778) at 25.000 fps
Audio #0 : AC-3 at 192 kb/s
Infos : 2 kanal, 48.0 kHz
Sandy Wexler 2017 NF 720p Web-DL TR x264 AC3 Torrent

Genişletmek için Tıkla!
19-05-2017 15:32 , DariusRz Tarafından Yüklendi.
Kaynaklar: 2 / İndirilen: 0 / Boyut: 2.85 GB / Tamamlandı: 119
Torrenti İndir  Torrenti Şikayet Et Torrent Tanımı Tanıtım Videosu
IMDB Puanı: 5.1 5.1/10
Kategori: Web-DL
http://www.imdb.com/title/tt5893332/

Sandy Wexler 2017 NF 720p Web-DL TR x264 AC3
Şanssız ancak kararlı bir yetenek menajeri, gerçekten yetenek sahibi olan ilk müşterisini bulur ve sonunda kariyerinde yükselmeye başlar.
Format : Matroska at 3 114 kb/s
Length : 2.85 GiB for 2 s 11dk 0s 419 ms
Video #0 : AVC at 2 920 kb/s
Aspect : 1280 x 720 (1.778) at 23.976 fps
Audio #0 : AC-3 at 192 kb/s
Infos : 2 kanal, 44.1 kHz
Logan 2017 1080p TrSub WEB-DL DD5.1 x264 FGT Torrent

Genişletmek için Tıkla!
17-05-2017 17:59 , DariusRz Tarafından Yüklendi.
Kaynaklar: 3 / İndirilen: 0 / Boyut: 4.75 GB / Tamamlandı: 290
Torrenti İndir  Torrenti Şikayet Et Torrent Tanımı Tanıtım Videosu
IMDB Puanı: 8.4 8.4/10
Kategori: Web-DL
http://www.imdb.com/title/tt3315342/

Logan 2017 1080p TrSub WEB-DL DD5.1 x264 FGT


Yakın gelecekte, yorgun savaşçı Logan'ın önemsediği tek şey hasta olan Profesör X'i Meksika sınırında saklamaktı. Ancak Logan'ın dünyadan ve kendi efsanesinden saklanma çabası, karanlık güçler tarafından takip edilen genç bir Mutant'ın gelişiyle sona erer.
Video
ID : 1
Format : AVC
Format/Info : Advanced Video Codec
Format profile : High@L4
Format settings, CABAC : Yes
Format settings, ReFrames : 5 frames
Codec ID : V_MPEG4/ISO/AVC
Duration : 2h 17mn
Bit rate : 4 454 Kbps
Width : 1 914 pixels
Height : 800 pixels
Display aspect ratio : 2.40:1
Frame rate mode : Constant
Frame rate : 23.976 (24000/1001) fps
Color space : YUV
Chroma subsampling : 4:2:0
Bit depth : 8 bits
Scan type : Progressive
Bits/(Pixel*Frame) : 0.121
Stream size : 4.29 GiB (90%)
Title : Logan.2017.1080p.WEB-DL.DD5.1.H264-FGT
Language : English
Default : Yes
Forced : No
Color range : Limited
Color primaries : BT.709
Transfer characteristics : BT.709
Matrix coefficients : BT.709

Audio
ID : 2
Format : AC-3
Format/Info : Audio Coding 3
Mode extension : CM (complete main)
Format settings, Endianness : Big
Codec ID : A_AC3
Duration : 2h 17mn
Bit rate mode : Constant
Bit rate : 384 Kbps
Channel(s) : 6 channels
Channel positions : Front: L C R, Side: L R, LFE
Sampling rate : 48.0 KHz
Frame rate : 31.250 fps (1536 spf)
Compression mode : Lossy
Stream size : 378 MiB (8%)
Title : Logan.2017.1080p.WEB-DL.DD5.1.H264-FGT
Language : English
Default : Yes
Forced : No

Text
ID : 3
Format : UTF-8
Codec ID : S_TEXT/UTF8
Codec ID/Info : UTF-8 Plain Text
Language : English
Default : Yes
Forced : No