Torrent Kategoriler

A
B
C
D
E
F
G
H
I
J
K
L
M
N
O
P
Q
R
S
T
U
V
W
X
Y
Z
0-9
Dirilis ''Ertugrul'' Bolum 88 720p WebRip x264 AC3 NOVA Torrent

Genişletmek için Tıkla!
19-05-2017 15:51 , TURKNOVA Tarafından Yüklendi.
Kaynaklar: 3 / İndirilen: 0 / Boyut: 2.18 GB / Tamamlandı: 185
Torrenti İndir  Torrenti Şikayet Et Torrent Tanımı
Kategori: Web-DL
Anonim Yükleyici

Dirilis ''Ertugrul'' Bolum 88 720p WebRip x264 AC3 NOVA

Format : Matroska at 2 176 kb/s
Length : 2.18 GiB for 2 s 23dk 13s 152 ms
Video #0 : AVC at 2 000 kb/s
Aspect : 1280 x 720 (1.778) at 25.000 fps
Audio #0 : AC-3 at 192 kb/s
Infos : 2 kanal, 48.0 kHz
Sandy Wexler 2017 NF 720p Web-DL TR x264 AC3 Torrent

Genişletmek için Tıkla!
19-05-2017 15:32 , DariusRz Tarafından Yüklendi.
Kaynaklar: 7 / İndirilen: 0 / Boyut: 2.85 GB / Tamamlandı: 115
Torrenti İndir  Torrenti Şikayet Et Torrent Tanımı Tanıtım Videosu
IMDB Puanı: 5.1 5.1/10
Kategori: Web-DL
http://www.imdb.com/title/tt5893332/

Sandy Wexler 2017 NF 720p Web-DL TR x264 AC3
Şanssız ancak kararlı bir yetenek menajeri, gerçekten yetenek sahibi olan ilk müşterisini bulur ve sonunda kariyerinde yükselmeye başlar.
Format : Matroska at 3 114 kb/s
Length : 2.85 GiB for 2 s 11dk 0s 419 ms
Video #0 : AVC at 2 920 kb/s
Aspect : 1280 x 720 (1.778) at 23.976 fps
Audio #0 : AC-3 at 192 kb/s
Infos : 2 kanal, 44.1 kHz
Bi O Kalmıştı (B.O.K) 2014 Sansürsüz 1080p Web-DL TR h264 AC3 Torrent

Genişletmek için Tıkla!
18-05-2017 12:39 , UtkuGARIP Tarafından Yüklendi.
Kaynaklar: 5 / İndirilen: 0 / Boyut: 1.38 GB / Tamamlandı: 200
Torrenti İndir  Torrenti Şikayet Et Torrent Tanımı Tanıtım Videosu
IMDB Puanı: 4.6 4.6/10
Kategori: Web-DL
http://www.imdb.com/title/tt6450140/

Bi O Kalmıştı (B.O.K) 2014 Sansürsüz 1080p Web-DL TR h264 AC3









Hayati Altuntaş, ailesi ile kıt kanaat geçindiği bir hayat sürmektedir. Abisi Bekir ise refah içerisinde karısının babasından kalan kuyumcu dükkanlarını işletir. Hayati her Allah'ın günü sokaklara iş aramaya çıkar, ama şansı pek yaver gitmez. Öte yandan elindeki avucundakini de şans oyunlarına yatırır. Karısı Saniye ve abisi Bekir de dahil olmak üzere onun bu hali herkese malzeme olmuştur. Hayati'ninse elinde sadece hayalleri kalmıştır..
Umutsuzluklar, hayaller ve duygusal zenginliklerle örülü Altuntaş ailesinin trajikomik hikâyesini anlatan filmin yapımcılığını Han Prodüksiyon, yönetmenliğini Burak Babayiğ** ve senaristliğini Taha Ulukaya üstleniyor. Yeşilçam filmlerinin sıcaklığının taşımayı amaçlayan filmin adını aldığı 'kısaltma' ise "bi o kalmıştı". Oyuncu kadrosunda ise Murat Nazım Vardarlı, Andaç Semerci, Gülşah Yeşilot, Mutia Gürsel, Taha Ulukaya, Kemal Ekşioğlu ve Sebahat Adalar gibi yeni isimler yer alıyor.



Genişlet PHP:


Format 
MPEG-4 at 2 098 kb/s
Length 
1.38 GiB for 1 s 34dk 29s 40 ms
Video 
#0 : AVC at 1 982 kb/s
Aspect 1920 x 1080 (1.778at 25.000 fps
Audio 
#0 : AC-3 at 112 kb/s
Infos 2 kanal48.0 kHz
Language 
tr






Logan 2017 1080p TrSub WEB-DL DD5.1 x264 FGT Torrent

Genişletmek için Tıkla!
17-05-2017 17:59 , DariusRz Tarafından Yüklendi.
Kaynaklar: 4 / İndirilen: 0 / Boyut: 4.75 GB / Tamamlandı: 290
Torrenti İndir  Torrenti Şikayet Et Torrent Tanımı Tanıtım Videosu
IMDB Puanı: 8.4 8.4/10
Kategori: Web-DL
http://www.imdb.com/title/tt3315342/

Logan 2017 1080p TrSub WEB-DL DD5.1 x264 FGT


Yakın gelecekte, yorgun savaşçı Logan'ın önemsediği tek şey hasta olan Profesör X'i Meksika sınırında saklamaktı. Ancak Logan'ın dünyadan ve kendi efsanesinden saklanma çabası, karanlık güçler tarafından takip edilen genç bir Mutant'ın gelişiyle sona erer.
Video
ID : 1
Format : AVC
Format/Info : Advanced Video Codec
Format profile : High@L4
Format settings, CABAC : Yes
Format settings, ReFrames : 5 frames
Codec ID : V_MPEG4/ISO/AVC
Duration : 2h 17mn
Bit rate : 4 454 Kbps
Width : 1 914 pixels
Height : 800 pixels
Display aspect ratio : 2.40:1
Frame rate mode : Constant
Frame rate : 23.976 (24000/1001) fps
Color space : YUV
Chroma subsampling : 4:2:0
Bit depth : 8 bits
Scan type : Progressive
Bits/(Pixel*Frame) : 0.121
Stream size : 4.29 GiB (90%)
Title : Logan.2017.1080p.WEB-DL.DD5.1.H264-FGT
Language : English
Default : Yes
Forced : No
Color range : Limited
Color primaries : BT.709
Transfer characteristics : BT.709
Matrix coefficients : BT.709

Audio
ID : 2
Format : AC-3
Format/Info : Audio Coding 3
Mode extension : CM (complete main)
Format settings, Endianness : Big
Codec ID : A_AC3
Duration : 2h 17mn
Bit rate mode : Constant
Bit rate : 384 Kbps
Channel(s) : 6 channels
Channel positions : Front: L C R, Side: L R, LFE
Sampling rate : 48.0 KHz
Frame rate : 31.250 fps (1536 spf)
Compression mode : Lossy
Stream size : 378 MiB (8%)
Title : Logan.2017.1080p.WEB-DL.DD5.1.H264-FGT
Language : English
Default : Yes
Forced : No

Text
ID : 3
Format : UTF-8
Codec ID : S_TEXT/UTF8
Codec ID/Info : UTF-8 Plain Text
Language : English
Default : Yes
Forced : No
Amerikanin En Cok Nefret Edilen Kadini The Most Hated Woman in America 2017 NF 720p Web-DL TR x264 AC3 Torrent

Genişletmek için Tıkla!
17-05-2017 17:37 , DariusRz Tarafından Yüklendi.
Kaynaklar: 3 / İndirilen: 0 / Boyut: 1.52 GB / Tamamlandı: 135
Torrenti İndir  Torrenti Şikayet Et Torrent Tanımı Tanıtım Videosu
IMDB Puanı: 6.2 6.2/10
Kategori: Web-DL
http://www.imdb.com/title/tt4842646/

Amerikanin En Cok Nefret Edilen Kadini The Most Hated Woman in America 2017 NF 720p Web-DL TR x264 AC3
Amerikan Ateistleri"" derneğinin kurucusu, politik kültür savaşlarının önde gelen delifişeği Madalyn Murray O'Hair'in ortadan kayboluşu hakkında gerçek suç temalı bir biyografi... ""Amerika'nın En Çok Nefret Edilen Kadını""; kimilerine göre tartışmalı bir kötü karakter, kimilerine göre ise benzeri görülmemiş bir kahraman olan karmaşık bir kişiliğin yükselişini ve düşüşünü anlatıyor.
Format : Matroska at 2 349 kb/s
Length : 1.52 GiB for 1 s 32dk 56s 28 ms
Video #0 : AVC at 2 155 kb/s
Aspect : 1280 x 720 (1.778) at 23.976 fps
Audio #0 : AC-3 at 192 kb/s
Infos : 2 kanal, 44.1 kHz
Sicak Yaz White Girl 2016 NF 720p Web-DL TR x264 AC3 Torrent

Genişletmek için Tıkla!
17-05-2017 13:46 , DariusRz Tarafından Yüklendi.
Kaynaklar: 12 / İndirilen: 0 / Boyut: 1.8 GB / Tamamlandı: 349
Torrenti İndir  Torrenti Şikayet Et Torrent Tanımı Tanıtım Videosu
IMDB Puanı: 5.8 5.8/10
Kategori: Web-DL
http://www.imdb.com/title/tt4129870/

Sicak Yaz White Girl 2016 NF 720p Web-DL TR x264 AC3
Üniversiteli bir kiz New York sokaklarinda kokain ve diger uyusturuculari bulmaya cabalarken tutunmaya deger bir seyler bulsa da bunun elinden kayip gidebilecegini görür. / DariusRz
Format : Matroska at 2 847 kb/s
Length : 1.80 GiB for 1 s 30dk 25s 842 ms
Video #0 : AVC at 2 653 kb/s
Aspect : 1280 x 720 (1.778) at 23.976 fps
Audio #0 : AC-3 at 192 kb/s
Infos : 2 kanal, 44.1 kHz
Seni Seven Ölsün 2016 1080p Web-DL h264 AC3 Torrent

Genişletmek için Tıkla!
17-05-2017 12:34 , UtkuGARIP Tarafından Yüklendi.
Kaynaklar: 15 / İndirilen: 0 / Boyut: 4.07 GB / Tamamlandı: 301
Torrenti İndir  Torrenti Şikayet Et Torrent Tanımı Tanıtım Videosu
IMDB Puanı: 6.0 6.0/10
Kategori: Web-DL
http://www.imdb.com/title/tt5934126/

Seni Seven Ölsün 2016 1080p Web-DL h264 AC3
Seni Seven Ölsün, bir tılsımın etkisinde olan Karadeniz köyünde geçiyor. Tılsımın etkisiyle yüzyıllardır kavuşamayan aşıkların hüzünlü öyküsüne dur demeye karar veren bir çift, birbirine düşman ailelerin çocukları olsalar da elele verirler. Bunun sonucunda başlarında eğlenceli, komik, romantik ve macera dolu olaylar geçecektir..
Unutulmaz ve Beni Böyle Sev dizilerinde yönetmen koltuğuna oturan Cem Tabak'ın ilk uzun metrajlı film denemesi olan Seni Seven Ölsün'ün senaryosunda Şeyda Delibaşı imzası var. Filmin başrollerini Alper Saldıran, Fulya Zenginer, Hüseyin Avni Danyal ve Durul Bazan üstlenirken, filmin kadrosunda Ruhi Sarı, Hakan Salınmış, Sacide Taşaner, Şamil Kafkas, Nuray Yeşilaraz ve Eylem Tanrıver gibi isimler yer alıyor.
Genişlet PHP:


Format 
MPEG-4 at 5 507 kb/s
Length 
4.07 GiB for 1 s 45dk 40s 608 ms
Video 
#0 : AVC at 5 117 kb/s
Aspect 1912 x 1072 (1.778at 25.000 fps
Audio 
#0 : AC-3 at 384 kb/s
Infos 6 kanal48.0 kHz
Language 
tr
Kötü Çocuk 2017 720p WEB-DL AAC x264 Torrent

Genişletmek için Tıkla!
16-05-2017 13:41 , UtkuGARIP Tarafından Yüklendi.
Kaynaklar: 7 / İndirilen: 0 / Boyut: 1.26 GB / Tamamlandı: 233
Torrenti İndir  Torrenti Şikayet Et Torrent Tanımı Tanıtım Videosu
IMDB Puanı: 2.0 2.0/10
Kategori: Web-DL
http://www.imdb.com/title/tt6289452/

Kötü Çocuk 2017 720p WEB-DL AAC x264









Kayla doğduğu gün babası tarafından terk edilmiş, yaşamı boyunca annesi tarafından büyütülmüş ve artık lise çağında bir genç kızdır. Ancak kendisini terk eden babasının aniden ortaya çıkmasıyla hayatı değişir. Kayla, 17 yaşına girdiğinde, ilk kez gördüğü babasıyla, yabancı bir şehre taşınır. Bu yeni şehirde, İstanbul'da, bir yandan babasıyla yaşama zorluğu çekerken bir yandan da yeni bir okula alışması gerekecektir. Fakat daha okulun ilk gününde hiç beklemediği birisiyle, gizemli Meriç ile tanışır. Kayla'nın hayatı sırlarla dolu Meriç'in peşinden gittikçe iyice karışacaktır..
Yönetmenliğini Yağız Alp Akaydın'ın üstlendiği film, Büşra Küçük'ün yazdığı çok satan ve internet üzerinden 100 milyondan fazla okunan seri Kötü Çocuk filmin başrollerini Tolga Sarıtaş ve Afra Saraçoğlu beraber üstleniyor.



Genişlet PHP:


Format            
MPEG-4 at 1 578 kb/s
Length            
1.26 GiB for 1 s 54dk 44s 298 ms

Video 
#0          : AVC at 1 500 kb/s
Aspect            1280 x 720 (1.778at 25.000 fps

Audio 
#0          : AAC at 96.0 kb/s
Infos             2 kanal44.1 kHz
Language          
tr






13 Reasons Why 2017 S01E13 720p NF WebRip TR x264 AC3 NOVA Torrent

Genişletmek için Tıkla!
16-05-2017 10:44 , DariusRz Tarafından Yüklendi.
Kaynaklar: 1 / İndirilen: 0 / Boyut: 1.47 GB / Tamamlandı: 59
Torrenti İndir  Torrenti Şikayet Et Torrent Tanımı
Kategori: Web-DL

Ölmek İçin 13 Sebep 13 Reasons Why 2017 S01E13 720p NF WebRip TR x264 AC3 NOVA
Sezon Finali
2.Sezon YAKINDA kop2
Format : Matroska at 2 632 kb/s
Length : 1.47 GiB for 1 s 20dk 5s 0 ms
Video #0 : AVC at 3 115 kb/s
Aspect : 1280 x 720 (1.778) at 23.976 fps
Audio #0 : AC-3 at 384 kb/s
Infos : 2 kanal, 44.1 kHz
İsimsizler Bolum 08 Web-Rip x264 AC3 NOVA Torrent

Genişletmek için Tıkla!
16-05-2017 04:18 , TURKNOVA Tarafından Yüklendi.
Kaynaklar: 9 / İndirilen: 0 / Boyut: 1.72 GB / Tamamlandı: 272
Torrenti İndir  Torrenti Şikayet Et Torrent Tanımı
Kategori: Web-DL
Anonim Yükleyici

İsimsizler Bolum 08 Web-Rip x264 AC3 NOVA
Format : Matroska at 1 683 kb/s
Length : 1.72 GiB for 2 s 25dk 54s 520 ms
Video #0 : AVC at 1 500 kb/s
Aspect : 1280 x 720 (1.778) at 25.000 fps
Audio #0 : AC-3 at 192 kb/s
Infos : 2 kanal, 48.0 kHz
Language : tr
İçerde Bolum 34 Sansursuz 1080p WEBRip x264 AC3 NOVA Torrent

Genişletmek için Tıkla!
16-05-2017 00:26 , DariusRz Tarafından Yüklendi.
Kaynaklar: 5 / İndirilen: 0 / Boyut: 2.78 GB / Tamamlandı: 443
Torrenti İndir  Torrenti Şikayet Et Torrent Tanımı
Kategori: Web-DL

İçerde Bolum 34 Sansursuz 1080p WEBRip x264 AC3 NOVA
Format : Matroska at 2 892 kb/s
Length : 2.78 GiB for 2 s 17dk 34s 206 ms
Video #0 : AVC at 2 698 kb/s
Aspect : 1920 x 1080 (1.778) at 25.000 fps
Audio #0 : AC-3 at 192 kb/s
Infos : 2 kanal, 44.1 kHz
Hep Yek 2 2017 Sansürsüz 1080p WEB-DL TR x264 AAC Torrent

Genişletmek için Tıkla!
15-05-2017 21:13 , UtkuGARIP Tarafından Yüklendi.
Kaynaklar: 10 / İndirilen: 0 / Boyut: 2.14 GB / Tamamlandı: 332
Torrenti İndir  Torrenti Şikayet Et Torrent Tanımı Tanıtım Videosu
IMDB Puanı: 3.8 3.8/10
Kategori: Web-DL
http://www.imdb.com/title/tt6126428/

Hep Yek 2 2017 Sansürsüz 1080p WEB-DL TR x264 AAC









Gürkan ile Altan, Cevat Bakır'ın eline feci düşmüştür. Zira ilk filmde kendisini kazıklayan Şahin'i öldüren Cevat Bakır, Altan ile Gürkan'ı tek bir şartla affedecektir: Şahin'in cesedini bir an önce ortadan kaldırmaları gerekmektedir. Fakat bu işi fark edilmeden ve tereyağından kıl çeker gibi yapmak zorundadırlar. İki kafadar bu zorlu görevi elbette ki ellerine yüzlerine bulaştıracak, yine beladan belaya sürüklenecek ve peşlerine ülkenin en psikopat ve tehlikeli adamlarını takmayı başaracaklardır..
Hep Yek filminin devam halkası olan Hep Yek 2'nin senaristliğini Orçun Benli, Bilal Kalyoncu ve Şükrü Üçpınar üstleniyor. Yönetmen koltuğuna ise Orçun Benli geçerken oyuncu kadrosunda Gökhan Yıkılkan, Ulaş Torun, Gürkan Uygun, Tuna Orhan, Deniz Uğur, Ali Çatalbaş, Cenk Ertan gibi isimleri yer alıyor.



Genişlet Kod:
General
Format : MPEG-4
Duration : 1 h 32 min
Overall bit rate : 3 309 kb/s
Movie name : Hep Yek 2 2017 1080p WEB-DL TR H.264 AAC (Sansürsüz)
Video
Format : AVC
Bit rate : 3 207 kb/s
Width : 1 920 pixels
Height : 1 080 pixels
Frame rate : 25.000 FPS
Bit depth : 8 bits
Title : Video (MPEG-4p10/AVC/H.264)
Language : Turkish
Audio
Format : AAC
Bit rate : 93.6 kb/s
Channel(s) : 2 channels
Channel(s) (Original) : 1 channel
Sampling rate : 44.1 kHz
Frame rate : 43.066 FPS (1024 spf)
Title : Ses (AAC - 44100 Hz, 1 Kanal, 16 Bit)
Language : Turkish






Seksi Kizlar Araniyor Acik Acik Hot Girls Wanted Turned On 2017 Bolum 1-6 BoxSet NF 720p WEBRip TR x264 AC3 NOVA Torrent

Genişletmek için Tıkla!
15-05-2017 17:37 , DariusRz Tarafından Yüklendi.
Kaynaklar: 10 / İndirilen: 0 / Boyut: 6.42 GB / Tamamlandı: 666
Torrenti İndir  Torrenti Şikayet Et Torrent Tanımı
Kategori: Web-DL

Seksi Kizlar Araniyor Acik Acik Hot Girls Wanted Turned On 2017 Bolum 1-6 BoxSet NF 720p WEBRip TR x264 AC3 NOVA
SEKSİ KIZLAR ARANIYOR'un yaratıcısı olan ekip şimdi de sektörün durumuna, yeteneklere, tüketicilere ve tüm bunların arkasındaki itici güç olan teknolojiye ışık tutan altı bölümlük bir belgeselle geliyor.
Aspect : 1280 x 720 (1.778) at 23.976 fps
Audio #0 : AC-3 at 384 kb/s
Infos : 2 kanal, 44.1 kHz
Payitaht 'Abdulhamit' 11 720p WebRip x264 AC3 NOVA Torrent

Genişletmek için Tıkla!
14-05-2017 02:28 , mornit Tarafından Yüklendi.
Kaynaklar: 4 / İndirilen: 0 / Boyut: 2.07 GB / Tamamlandı: 103
Torrenti İndir  Torrenti Şikayet Et Torrent Tanımı Tanıtım Videosu
IMDB Puanı: 4.8 4.8/10
Kategori: Web-DL
http://www.imdb.com/title/tt6536562/

Payitaht ''Abdulhamid' Bolum 11 720p HDTV x264 AC3 NOVA

*********************************************
*********************************************

Format : Matroska at 2 190 kb/s
Length : 2.07 GiB for 2 s 15dk 1s 920 ms
Video #0 : AVC at 1 999 kb/s
Aspect 1280 x 720 (1.778) at 23.976 fps
Audio #0 : AC-3 at 192 kb/s
Infos : 2 kanal, 48.0 kHz

*********************************************
*********************************************
Hep Yek 2 Sansursuz 2017 720p Web-Rip x264 AC3 Torrent

Genişletmek için Tıkla!
09-05-2017 23:35 , DariusRz Tarafından Yüklendi.
Kaynaklar: 39 / İndirilen: 0 / Boyut: 1.4 GB / Tamamlandı: 1,008
Torrenti İndir  Torrenti Şikayet Et Torrent Tanımı
Kategori: Web-DL

Hep Yek 2 Sansursuz 2017 720p Web-Rip x264 AC3
Gürkan ile Altan, Cevat Bakır'ın eline feci düşmüştür. Zira kendisini kazıklayan Şahin'i öldüren Cevat Bakır, Altan ile Gürkan'ı tek bir şartla affedecektir: Şahin'in cesedini bir an önce ortadan kaldırmaları gerekmektedir. Fakat bu işi fark edilmeden ve tere yağından kıl çeker gibi yapmak zorundadırlar. İki kafadar bu zorlu görevi elbette ki ellerine yüzlerine bulaştıracak ve beladan belaya sürüklenecekler.
Format : Matroska at 2 175 kb/s
Length : 1.40 GiB for 1 s 32dk 24s 280 ms
Video #0 : AVC at 2 000 kb/s
Aspect : 1280 x 720 (1.778) at 25.000 fps
Audio #0 : AC-3 at 192 kb/s
Infos : 2 kanal, 44.1 kHz
İsimsizler Bolum 07 720p Web-Rip x264 AC3 NOVA Torrent

Genişletmek için Tıkla!
09-05-2017 17:51 , DariusRz Tarafından Yüklendi.
Kaynaklar: 7 / İndirilen: 0 / Boyut: 2.08 GB / Tamamlandı: 277
Torrenti İndir  Torrenti Şikayet Et Torrent Tanımı
Kategori: Web-DL

İsimsizler Bolum 07 720p Web-Rip x264 AC3 NOVA
Format : Matroska at 2 180 kb/s
Length : 2.08 GiB for 2 s 16dk 45s 480 ms
Video #0 : AVC at 2 000 kb/s
Aspect : 1280 x 720 (1.778) at 25.000 fps
Audio #0 : AC-3 at 192 kb/s
Infos : 2 kanal, 44.1 kHz
İçerde Bolum 33 Sansursuz 1080p Web-Rip x264 AC3 NOVA Torrent

Genişletmek için Tıkla!
09-05-2017 16:24 , DariusRz Tarafından Yüklendi.
Kaynaklar: 6 / İndirilen: 0 / Boyut: 3.01 GB / Tamamlandı: 325
Torrenti İndir  Torrenti Şikayet Et Torrent Tanımı
Kategori: Web-DL

İçerde Bolum 33 Sansursuz 1080p Web-Rip x264 AC3 NOVA
Format : Matroska at 3 182 kb/s
Length : 3.01 GiB for 2 s 15dk 21s 504 ms
Video #0 : AVC at 3 000 kb/s
Aspect : 1920 x 1080 (1.778) at 25.000 fps
Audio #0 : AC-3 at 192 kb/s
Infos : 2 kanal, 44.1 kHz
Fi Bolum 07 1080p WebRip x264 AC3 NOVA Torrent

Genişletmek için Tıkla!
06-05-2017 03:17 , mornit Tarafından Yüklendi.
Kaynaklar: 25 / İndirilen: 0 / Boyut: 1.45 GB / Tamamlandı: 1,313
Torrenti İndir  Torrenti Şikayet Et Torrent Tanımı
Kategori: Web-DL

Fi Bolum 07 1080p WebRip x264 AC3 NOVA




Bir adam bir kadını sever ve dünya değişir. Ama hayatı kökten değiştiren, aşkı değil, aşkına ulaşabilmek için cesaret edebildikleridir. O kişiye duyduğu aşkın acımasızlığında öylesine büyük fırtınalar başlatır ki, sonunda, dokunduğu her şeyi yıkar. Ve bazen... Hayatın kendini yenilemesi için önce her şeyin yıkılması şarttır.


Format: Matroska at 3 153 kb/s
Length : 1.45 GiB for 1 s 5dk 39s 776 ms
Video #0 : AVC at 3 000 kb/s
Aspect : 1920 x 1080 (1.778) at 25.000 fps
Audio #0 : AC-3 at 192 kb/s
Infos : 1 kanal, 48.0 kHz



Iris In the Shadow of Iris 2017 NF 720p Web-DL TR x264 AC3 Torrent

Genişletmek için Tıkla!
05-05-2017 00:08 , DariusRz Tarafından Yüklendi.
Kaynaklar: 7 / İndirilen: 0 / Boyut: 1.42 GB / Tamamlandı: 345
Torrenti İndir  Torrenti Şikayet Et Torrent Tanımı Tanıtım Videosu
IMDB Puanı: 5.9 5.9/10
Kategori: Web-DL
http://www.imdb.com/title/tt5598110/

Iris In the Shadow of Iris 2017 NF 720p Web-DL TR x264 AC3
Zengin bir bankerin karısının ansızın ortadan kaybolması gizli müfettişler, umutsuz eylemler ve karmaşık aldatmacalarla dolu baş döndürücü bir dünyanın kapılarını açıyor.
Format : Matroska at 2 068 kb/s
Length : 1.42 GiB for 1 s 38dk 36s 243 ms
Video #0 : AVC at 1 874 kb/s
Aspect : 1280 x 720 (1.778) at 24.000 fps
Audio #0 : AC-3 at 192 kb/s
Infos : 2 kanal, 44.1 kHz
İçerde Bolum 32 Sansursuz 1080p Web-Rip x264 AC3 NOVA Torrent

Genişletmek için Tıkla!
03-05-2017 01:04 , DariusRz Tarafından Yüklendi.
Kaynaklar: 2 / İndirilen: 1 / Boyut: 2.05 GB / Tamamlandı: 206
Torrenti İndir  Torrenti Şikayet Et Torrent Tanımı
Kategori: Web-DL

İçerde Bolum 32 Sansursuz 1080p Web-Rip x264 AC3 NOVA
Format : Matroska at 2 188 kb/s
Length : 2.05 GiB for 2 s 14dk 4s 80 ms
Video #0 : AVC at 2 000 kb/s
Aspect : 1920 x 1080 (1.778) at 25.000 fps
Audio #0 : AC-3 at 192 kb/s
Infos : 2 kanal, 44.1 kHz
Söz Bolum 04 720p WebRip x264 AC3 NOVA Torrent

Genişletmek için Tıkla!
02-05-2017 21:32 , TURKNOVA Tarafından Yüklendi.
Kaynaklar: 2 / İndirilen: 0 / Boyut: 1.89 GB / Tamamlandı: 169
Torrenti İndir  Torrenti Şikayet Et Torrent Tanımı
Kategori: Web-DL
Anonim Yükleyici

Söz Bolum 04 720p WebRip x264 AC3 NOVA

*********************************************
*********************************************
Format : Matroska at 2 194 kb/s
Length : 1.89 GiB for 2 s 3dk 13s 560 ms
Video #0 : AVC at 2 000 kb/s
Aspect : 1280 x 720 (1.778) at 25.000 fps
Audio #0 : AC-3 at 192 kb/s
Infos : 2 kanal, 44.1 kHz
Language : tr
*********************************************
*********************************************
Yakici Kumlar Burning Sands 2017 NF 720p Web-DL TR x264 AC3 Torrent

Genişletmek için Tıkla!
02-05-2017 20:39 , DariusRz Tarafından Yüklendi.
Kaynaklar: 7 / İndirilen: 0 / Boyut: 1.64 GB / Tamamlandı: 177
Torrenti İndir  Torrenti Şikayet Et Torrent Tanımı Tanıtım Videosu
IMDB Puanı: 6.2 6.2/10
Kategori: Web-DL
http://www.imdb.com/title/tt5826432/

Yakici Kumlar Burning Sands 2017 NF 720p Web-DL TR x264 AC3
Zurich, gelecek vaat eden bir öğrencidir. Kardeşlik kulübüne kabul sırasında felaketlerle dolu bir geceye adım atar. Onu zorlu bir sınav beklemektedir
Format : Matroska at 2 291 kb/s
Length : 1.64 GiB for 1 s 42dk 18s 638 ms
Video #0 : AVC at 2 097 kb/s
Aspect : 1280 x 720 (1.778) at 23.976 fps
Audio #0 : AC-3 at 192 kb/s
Infos : 2 kanal, 44.1 kHz
Vezir Parmağı 2017 1080p WEB-DL x264 AC3 Torrent

Genişletmek için Tıkla!
02-05-2017 15:07 , UtkuGARIP Tarafından Yüklendi.
Kaynaklar: 34 / İndirilen: 0 / Boyut: 3.79 GB / Tamamlandı: 1,171
Torrenti İndir  Torrenti Şikayet Et Torrent Tanımı Tanıtım Videosu
IMDB Puanı: 3.8 3.8/10
Kategori: Web-DL
http://www.imdb.com/title/tt6042446/

Vezir Parmağı 2017 1080p WEB-DL x264 AC3









3 kıtaya yayılmış, farklı coğrafyalardan ve farklı kültürlerden insanları tebaası olarak bünyesinde barındıran Osmanlı İmparatorluğu uzun yıllardır bitmeyen savaşlardan yeni bir tanesine daha girmektedir. Ülkenin dört bir yanından eli silah tutan erkekler asker olarak orduya alınır. İmparatorluğun 5 ayrı bölgesinden yola çıkan, farklı kültürlere ait hamallar savaşa giden bu ordunun neferleri olacaktırlar...
Filmin yönetmenliğini ve senaryosunu Mahsun Kırmızıgül üstlenirken filmin yapımcılığı ise Boyut Film'e ait. Oldukça kalabalık bir oyuncu kadrosunun yer aldığı yapımda başrol yine Mahsun Kırmızıgül'e aitken, kendisine Ali Sürmeli, Selim Bayraktar, Peker Açıkalın, Orçun Kaptan, Levent Sülün, Rana Cabbar, Metin Yıldız, Talat Bulut, Altan Erkekli, Cihat Tamer, Nuri Alço, Muhammed Cangören, Hayrettin Karaoğuz, Yasemin Yalçın, Gülben Ergen, Ece Uslu, Derya Şensoy, Meral Çetinkaya, Aydan Burhan, Güner Özkul Fatoş Seymen, Suna Selen ve Defne Yalnız'dan oluşan oldukça kalabalık bir oyuncu kadrosu eşlik ediyor.



Genişlet Kod:
General
Format : MPEG-4
File size : 3.79 GiB
Duration : 1 h 46 min
Overall bit rate : 5 075 kb/s
Movie name : Vezir Parmağı 2017 1080p WEB-DL H.264 AC3
Video
Format : AVC
Width : 1 912 pixels
Height : 800 pixels
Frame rate : 25.000 FPS
Bit depth : 8 bits
Title : Video (MPEG-4p10/AVC/H.264)
Language : Turkish
Audio
Format : AC-3
Bit rate : 384 kb/s
Channel(s) : 6 channels
Sampling rate : 48.0 kHz
Frame rate : 31.250 FPS (1536 spf)
Bit depth : 16 bits
Title : Ses (AC-3/E-AC-3 & 48.000 Hz, 6 Kanal)




Gizli Servis Kingsman 2014 1080p WEB-DL x264 AC3 Torrent

Genişletmek için Tıkla!
01-05-2017 10:10 , UtkuGARIP Tarafından Yüklendi.
Kaynaklar: 17 / İndirilen: 0 / Boyut: 2.66 GB / Tamamlandı: 360
Torrenti İndir  Torrenti Şikayet Et Torrent Tanımı Tanıtım Videosu
IMDB Puanı: 7.7 7.7/10
Kategori: Web-DL
http://www.imdb.com/title/tt2802144/

Gizli Servis: Kingsman 2014 1080p WEB-DL x264 AC3









Gizli Servis: Kingsman, yönetmenliğini Matthew Vaughn'un üstlendiği, Dave Gibbons ve Mark Millar'ın The Secret Service adlı çizgi romanından uyarlanan casusluk, aksiyon ve komedi türlerindeki 2014 yapımı Amerikan-Britanya filmi.
Babası askeri bir operasyonda öldürülen bir gencin ailesine zor duruma düştüklerinde aramaları için bir numara verilir.. Ailenin genç ferdi ise aradan geçen 17 yıldan sonra başı belaya girince bu numarayı arar. Numaranın karşısındaki ise işinde en iyi ajanlardan biridir ve hayatını bu gencin babasına borçludur.. Şimdi ödeşme zamanıdır ve bu gence parlak bir kariyer için ajanlık üzerine eğitim verecektir.



Genişlet Kod:

General
Format : MPEG-4
File size : 2.66 GiB
Duration : 2 h 8 min
Overall bit rate : 2 955 kb/s
Movie name : Gizli Servis: Kingsman 2014 1080p WEB-DL x264 AC3
Video
Format : AVC
Width : 1 920 pixels
Height : 808 pixels
Frame rate : 23.976 (23976/1000) FPS
Bit depth : 8 bits
Title : Video (MPEG-4p10/AVC/H.264)
Language : Turkish
Audio
Format : AC-3
Bit rate : 448 kb/s
Channel(s) : 6 channels
Sampling rate : 48.0 kHz
Frame rate : 31.250 FPS (1536 spf)
Bit depth : 16 bits
Title : Ses (AC-3/E-AC-3 - 48.000 Hz, 6 Kanal)
Language : Turkish




Yolsuzlar Çetesi 2016 720p WEB-DL x264 AC3 Torrent

Genişletmek için Tıkla!
29-04-2017 22:24 , UtkuGARIP Tarafından Yüklendi.
Kaynaklar: 23 / İndirilen: 0 / Boyut: 1.73 GB / Tamamlandı: 700
Torrenti İndir  Torrenti Şikayet Et Torrent Tanımı Tanıtım Videosu
IMDB Puanı: 3.6 3.6/10
Kategori: Web-DL
http://www.imdb.com/title/tt6449434/

Yolsuzlar Çetesi 2016 720p WEB-DL TR x264 AC3
Fiko ve Kamil, ailelerinin evlerini ipotek ederek bankadan ve tefeci olan Rıfat’dan aldıkları paralarla mahallelerinde bir büfe açmış, geçinme mücadelesi veren iki kafadar arkadaştır. Rıfat birden hem evleri hem de dükkânı almak için elindeki senedin ödeme tarihini erkene çekince ikili sıkışır ve işlerini toparlayıp para kazanmak için mahallenin bitirim öğrencisi Cafer ile anlaşırlar. İkilinin para kazandığını gören Rıfat dükkânlarını yakarak onları daha da zor duruma düşürür. Fiko ile Kamil, Rıfat’a olan borçlarını denkleştirmeye çalışırken başka bir mafya babası olan Süleyman ile Rıfat’ın savaşının tam ortasında kalırlar. İkili, Fiko’nun melek görünümlü ahlaksız ergen kardeşi Taki, aileleri ve Kamil’in uzatmalı aşkı Gülay’ın arasında bu mücadeleden sıyrılmaya ve kendilerini kurtarmaya çalışacaklardır.
Ali Ayyıldız'ın yönetmenliği ve senaristliğini üstlendiği filmin yapımcılı ise Hakan Mataracı'ya ve Kar Film'e ait. Mafya komedisinin oyuncu kadrosunda ise Beyti Engin, Osman Sonant, Özge Sezince, Pascal Nouma ve Kadir Çöpdemir'in yanı sıra Burak Güneş, Başak Özbay Canbolat gibi isimler de yer alıyor.
General
Format : MPEG-4
File size : 1.73 GiB
Duration : 1 h 31 min
Overall bit rate : 2 698 kb/s
Movie name : Yolsuzlar Çetesi 2016 720p WEB-DL TR x264 AC3
Video
Format : AVC
Width : 1 280 pixels
Height : 532 pixels
Frame rate : 25.000 FPS
Bit depth : 8 bits
Title : Video (MPEG-4p10/AVC/H.264)
Language : Turkish
Audio
Format : AC-3
Bit rate : 192 kb/s
Channel(s) : 2 channels
Sampling rate : 48.0 kHz
Frame rate : 31.250 FPS (1536 spf)
Bit depth : 16 bits
Title : Ses (AC-3/E-AC-3 - 48.000, 2 Kanal)
Language : Turkish
Tereddüt Clair Obscur 2016 1080p Web-DL TR x264 AC3 Torrent

Genişletmek için Tıkla!
28-04-2017 15:45 , UtkuGARIP Tarafından Yüklendi.
Kaynaklar: 7 / İndirilen: 0 / Boyut: 3.46 GB / Tamamlandı: 256
Torrenti İndir  Torrenti Şikayet Et Torrent Tanımı Tanıtım Videosu
IMDB Puanı: 6.6 6.6/10
Kategori: Web-DL
http://www.imdb.com/title/tt4373956/

Tereddüt Clair Obscur 2016 1080p Web-DL TR x264 AC3
Tereddüt, yönetmen ve yapımcı Yeşim Ustaoğlu'nun senaryosunu yazıp yönettiği 2016 yapımı uzun metraj dram filmi. Film, bir psikiyatristin, taşra kasabasında görev yaptığı dönemde başından geçen olayları anlatır.
İstanbullu genç bir kadın psikiyatrist, tayinle geldiği ama şehre çok da uzak olmayan bir taşra kasabasında mecburi göreve başlar. Haftaiçi görevine kasabada devam ederken, hafta sonları da İstanbul'daki evine gelir. Çekici kocası Cem ile dışardan kusursuz gibi görünen bir evlilik sürdürmektedir; ama içten içe ters giden bir şeylerin olduğunu hisseder.. Öte yandan bir gün hastaneye getirilen küçük yaşta bir kadın hasta olan Elmas ile ilişkisi Şehnaz'a bambaşka bir kapı açarken, akli dengesini yitirmek üzere olan Elmas da Şehnaz'ın yardımıyla ruhundaki düğümleri bir bir çözecektir.
Yeni dönem sinemamızın önemli kadın yönetmenlerinden olan Yeşim Ustaoğlu, 5. uzun metrajlı filminde yine dramatik bir hikayeyi beyazperdeye taşıyor. Başrollerinde Funda Eryiğ**, Ecem Uzun, Mehmet Kurtuluş ve Okan Yalabık’ın oynadığı filmin yapımcılığı da Ustaoğlu Film şirketine ait.
Genişlet Kod:

General
Format : MPEG-4
File size : 3.46 GiB
Duration : 1 h 39 min
Overall bit rate : 4 966 kb/s
Video
Format : AVC
Bit rate : 4 577 kb/s
Width : 1 912 pixels
Height : 800 pixels
Frame rate : 25.000 FPS
Bit depth : 8 bits
Language : Turkish
Audio
Format : AC-3
Bit rate : 384 kb/s
Channel(s) : 6 channels
Sampling rate : 48.0 kHz
Frame rate : 31.250 FPS (1536 spf)
Bit depth : 16 bits
Language : Turkish
Romantik Serseriler Tramps 2016 NF 720p Web-DL TR x264 AC3 Torrent

Genişletmek için Tıkla!
26-04-2017 16:31 , DariusRz Tarafından Yüklendi.
Kaynaklar: 4 / İndirilen: 0 / Boyut: 2.28 GB / Tamamlandı: 196
Torrenti İndir  Torrenti Şikayet Et Torrent Tanımı Tanıtım Videosu
IMDB Puanı: 6.7 6.7/10
Kategori: Web-DL
http://www.imdb.com/title/tt4991512/

Romantik Serseriler Tramps 2016 NF 720p Web-DL TR x264 AC3
Şaibeli bir çanta değiş tokuş işine farklı nedenlerle bulaşan ve birbirini tanımayan Danny ile Ellie, işler kötü sonuçlanınca birlikte olaylı bir gece geçirir.
Format : Matroska at 3 925 kb/s
Length : 2.28 GiB for 1 s 23dk 0s 475 ms
Video #0 : AVC at 3 731 kb/s
Aspect : 1280 x 720 (1.778) at 23.976 fps
Audio #0 : AC-3 at 192 kb/s
Infos : 2 kanal, 44.1 kHz
İsimsizler Bolum 05 720p Web-Rip x264 AC3 NOVA Torrent

Genişletmek için Tıkla!
26-04-2017 00:53 , mornit Tarafından Yüklendi.
Kaynaklar: 7 / İndirilen: 0 / Boyut: 1.82 GB / Tamamlandı: 273
Torrenti İndir  Torrenti Şikayet Et Torrent Tanımı
Kategori: Web-DL

İsimsizler Bolum 5 Web-Rip x264 AC3 NOVA
Format : Matroska at 2 185 kb/s
Length : 2.07 GiB for 2 s 15dk 27s 878 ms
Video #0 : AVC at 2 000 kb/s
Aspect : 1280 x 720 (1.778) at 25.000 fps
Audio #0 : AC-3 at 192 kb/s
Infos : 2 kanal, 44.1 kHz
İçerde Bolum 31 Sansursuz 1080p Web-Rip x264 AC3 NOVA Torrent

Genişletmek için Tıkla!
25-04-2017 20:03 , DariusRz Tarafından Yüklendi.
Kaynaklar: 2 / İndirilen: 0 / Boyut: 2.95 GB / Tamamlandı: 157
Torrenti İndir  Torrenti Şikayet Et Torrent Tanımı
Kategori: Web-DL

İçerde Bolum 31 Sansursuz 1080p Web-Rip x264 AC3 NOVA
Format : Matroska at 3 012 kb/s
Length : 2.95 GiB for 2 s 20dk 19s 753 ms
Video #0 : AVC at 2 818 kb/s
Aspect : 1920 x 1080 (1.778) at 25.000 fps
Audio #0 : AC-3 at 192 kb/s
Infos : 2 kanal, 44.1 kHz
Fi Bölüm 4-5-6 Boxset 720p Web-DL AC3 x264 NOVA Torrent

Genişletmek için Tıkla!
23-04-2017 22:59 , anilk91 Tarafından Yüklendi.
Kaynaklar: 12 / İndirilen: 1 / Boyut: 2.87 GB / Tamamlandı: 607
Torrenti İndir  Torrenti Şikayet Et Torrent Tanımı
Kategori: Web-DL

Fi Bolum 4-5-6 Boxset 720p Web-DL AC3 x264 NOVA



Dizide +18 Sahneler bulunmaktadır bilginize!!
Bir adam bir kadını sever ve dünya değişir. Ama hayatı kökten değiştiren, aşkı değil, aşkına ulaşabilmek için cesaret edebildikleridir. O kişiye duyduğu aşkın acımasızlığında öylesine büyük fırtınalar başlatır ki, sonunda, dokunduğu her şeyi yıkar. Ve bazen... Hayatın kendini yenilemesi için önce her şeyin yıkılması şarttır.


Format : Matroska at 2 261 kb/s
Length : 981 MiB for 1 s 0dk 38s 591 ms
Video #0 : AVC at 2 067 kb/s
Aspect : 1280 x 720 (1.778) at 25.000 fps
Audio #0 : AC-3 at 192 kb/s
Infos : 2 kanal, 48.0 kHz
Language : tr
-----------------------------------
Format : Matroska at 2 126 kb/s
Length : 975 MiB for 1 s 4dk 5s 504 ms
Video #0 : AVC at 1 932 kb/s
Aspect : 1280 x 720 (1.778) at 25.000 fps
Audio #0 : AC-3 at 192 kb/s
Infos : 2 kanal, 48.0 kHz
Language : tr
------------------------------------
Format : Matroska at 2 114 kb/s
Length : 979 MiB for 1 s 4dk 46s 440 ms
Video #0 : AVC at 1 919 kb/s
Aspect : 1280 x 720 (1.778) at 25.000 fps
Audio #0 : AC-3 at 192 kb/s
Infos : 2 kanal, 48.0 kHz
Language : tr



Fi Bolum 4-5-6 Boxset 1080p Web-DL AAC x264 NOVA Torrent

Genişletmek için Tıkla!
23-04-2017 15:13 , TapOut Tarafından Yüklendi.
Kaynaklar: 19 / İndirilen: 1 / Boyut: 3.3 GB / Tamamlandı: 905
Torrenti İndir  Torrenti Şikayet Et Torrent Tanımı
Kategori: Web-DL

Fi Bolum 4-5-6 Boxset 1080p Web-DL AAC x264 NOVA



Dizide +18 Sahneler bulunmaktadır bilginize!!

Bir adam bir kadını sever ve dünya değişir. Ama hayatı kökten değiştiren, aşkı değil, aşkına ulaşabilmek için cesaret edebildikleridir. O kişiye duyduğu aşkın acımasızlığında öylesine büyük fırtınalar başlatır ki, sonunda, dokunduğu her şeyi yıkar. Ve bazen... Hayatın kendini yenilemesi için önce her şeyin yıkılması şarttır.



Format : Matroska at 2 496 kb/s
Length : 1.06 GiB for 1 s 0dk 38s 591 ms
Video #0 : AVC at 2 302 kb/s
Aspect : 1920 x 1080 (1.778) at 25.000 fps
Audio #0 : AAC at 192 kb/s
Infos : 1 kanal, 48.0 kHz
-----------------------------------
Format : Matroska at 2 500 kb/s
Length : 1.12 GiB for 1 s 4dk 5s 504 ms
Video #0 : AVC at 2 306 kb/s
Aspect : 1920 x 1080 (1.778) at 25.000 fps
Audio #0 : AAC at 192 kb/s
Infos : 1 kanal, 48.0 kHz
------------------------------------
Format : Matroska at 2 492 kb/s
Length : 1.13 GiB for 1 s 4dk 46s 421 ms
Video #0 : AVC at 2 297 kb/s
Aspect : 1920 x 1080 (1.778) at 25.000 fps
Audio #0 : AAC at 192 kb/s
Infos : 1 kanal, 48.0 kHz





Cesur ve Guzel Bolum 23 720p Web-DL x264 AC3 NOVA Torrent

Genişletmek için Tıkla!
21-04-2017 20:16 , DariusRz Tarafından Yüklendi.
Kaynaklar: 0 / İndirilen: 0 / Boyut: 2.11 GB / Tamamlandı: 22
Torrenti İndir  Torrenti Şikayet Et Torrent Tanımı
Kategori: Web-DL

Cesur ve Guzel Bolum 23 Sansursuz 720p Web-DL x264 AC3 NOVA
Format : Matroska at 2 194 kb/s
Length : 2.11 GiB for 2 s 17dk 56s 741 ms
Video #0 : AVC at 2 000 kb/s
Aspect : 1280 x 720 (1.778) at 25.000 fps
Audio #0 : AC-3 at 192 kb/s
Infos : 2 kanal, 44.1 kHz
Bu Sehir Arkandan Gelecek Bolum 15 Sansursuz 720p WEB-DL x264 AC3 Torrent

Genişletmek için Tıkla!
20-04-2017 04:50 , DariusRz Tarafından Yüklendi.
Kaynaklar: 0 / İndirilen: 0 / Boyut: 2.05 GB / Tamamlandı: 24
Torrenti İndir  Torrenti Şikayet Et Torrent Tanımı
Kategori: Web-DL

Bu Sehir Arkandan Gelecek Bolum 15 Sansursuz 720p WEB-DL x264 AC3
Format : Matroska at 2 211 kb/s
Length : 2.05 GiB for 2 s 12dk 34s 0 ms
Video #0 : AVC at 2 000 kb/s
Aspect : 1280 x 720 (1.778) at 25.000 fps
Audio #0 : AC-3 at 192 kb/s
Infos : 2 kanal, 44.1 kHz
3 Türk Bir Bebek 3 Türken Und Ein Baby 2015 720p Web-DL DUAL x264 AC3 Torrent

Genişletmek için Tıkla!
19-04-2017 16:57 , DariusRz Tarafından Yüklendi.
Kaynaklar: 7 / İndirilen: 0 / Boyut: 2.29 GB / Tamamlandı: 264
Torrenti İndir  Torrenti Şikayet Et Torrent Tanımı Tanıtım Videosu
IMDB Puanı: 5.4 5.4/10
Kategori: Web-DL
http://www.imdb.com/title/tt3598648/

3 Türk Bir Bebek 3 Türken Und Ein Baby 2015 720p Web-DL DUAL x264 AC3
Ailenin gelinlik mağazasını işleten, hayatlarından bezmiş üç erkek kardeşin hayatı, içlerinden biri eski kız arkadaşının bebeğine bakmak zorunda kalınca alt üst olur
Format : Matroska at 3 515 kb/s
Length : 2.29 GiB for 1 s 33dk 28s 455 ms
Video #0 : AVC at 3 000 kb/s
Aspect : 1280 x 720 (1.778) at 25.000 fps
Audio #0 : AC-3 at 192 kb/s
Infos : 2 kanal, 44.1 kHz
Language : tr
Audio #1 : AC-3 at 320 kb/s
Infos : 2 kanal, 44.1 kHz
Language : de
İsimsizler Bolum 04 720p Web-DL x264 AC3 NOVA Torrent

Genişletmek için Tıkla!
18-04-2017 14:56 , DariusRz Tarafından Yüklendi.
Kaynaklar: 6 / İndirilen: 0 / Boyut: 2.07 GB / Tamamlandı: 296
Torrenti İndir  Torrenti Şikayet Et Torrent Tanımı
Kategori: Web-DL

İsimsizler Bolum 04 720p Web-DL x264 AC3 NOVA
Format : Matroska at 2 185 kb/s
Length : 2.07 GiB for 2 s 15dk 27s 878 ms
Video #0 : AVC at 2 000 kb/s
Aspect : 1280 x 720 (1.778) at 25.000 fps
Audio #0 : AC-3 at 192 kb/s
Infos : 2 kanal, 44.1 kHz
İçerde Bolum 30 Sansursuz 1080p Web-DL x264 AC3 NOVA Torrent

Genişletmek için Tıkla!
18-04-2017 01:26 , DariusRz Tarafından Yüklendi.
Kaynaklar: 2 / İndirilen: 0 / Boyut: 1.88 GB / Tamamlandı: 214
Torrenti İndir  Torrenti Şikayet Et Torrent Tanımı
Kategori: Web-DL

İçerde Bolum 30 Sansursuz 1080p Web-DL x264 AC3 NOVA
Format : Matroska at 2 202 kb/s
Length : 1.88 GiB for 2 s 2dk 16s 368 ms
Video #0 : AVC at 2 000 kb/s
Aspect : 1920 x 1080 (1.778) at 25.000 fps
Audio #0 : AC-3 at 192 kb/s
Infos : 2 kanal, 44.1 kHz
Cesur ve Guzel Bolum 22 Sansursuz 720p Web-DL x264 AC3 NOVA Torrent

Genişletmek için Tıkla!
14-04-2017 16:44 , DariusRz Tarafından Yüklendi.
Kaynaklar: 0 / İndirilen: 0 / Boyut: 2.13 GB / Tamamlandı: 53
Torrenti İndir  Torrenti Şikayet Et Torrent Tanımı
Kategori: Web-DL

Cesur ve Guzel Bolum 22 Sansursuz 720p Web-DL x264 AC3 NOVA
Format : Matroska at 2 198 kb/s
Length : 2.13 GiB for 2 s 18dk 49s 544 ms
Video #0 : AVC at 2 000 kb/s
Aspect : 1280 x 720 (1.778) at 25.000 fps
Audio #0 : AC-3 at 192 kb/s
Infos : 2 kanal, 44.1 kHz
Bu Sehir Arkandan Gelecek Bolum 14 Sansursuz 720p WEB-DL AAC x264 Torrent

Genişletmek için Tıkla!
13-04-2017 20:21 , DariusRz Tarafından Yüklendi.
Kaynaklar: 1 / İndirilen: 0 / Boyut: 1.94 GB / Tamamlandı: 19
Torrenti İndir  Torrenti Şikayet Et Torrent Tanımı
Kategori: Web-DL

Bu Sehir Arkandan Gelecek Bolum 14 Sansursuz 720p WEB-DL AAC x264
Format : Matroska at 2 212 kb/s
Length : 1.94 GiB for 2 s 5dk 35s 520 ms
Video #0 : AVC at 2 019 kb/s
Aspect : 1280 x 720 (1.778) at 25.000 fps
Audio #0 : AC-3 at 192 kb/s
Infos : 2 kanal, 44.1 kHz
Cetin Ceviz 2 2016 Sansursuz 1080p Web-DL x264 AC3 NOVA Torrent

Genişletmek için Tıkla!
11-04-2017 19:25 , DariusRz Tarafından Yüklendi.
Kaynaklar: 0 / İndirilen: 0 / Boyut: 11.06 GB / Tamamlandı: 108
Torrenti İndir  Torrenti Şikayet Et Torrent Tanımı
Kategori: Web-DL

Cetin Ceviz 2 2016 Sansursuz 1080p x264 AC3 NOVA
Herkes tarafından uğursuz olarak görülen Hatice sonunda aradığı aşkı bulmuş ve Tahsin ile evlenmiştir. Düğün geceleri Tahsin’in babasının vefat haberi ile yeni evli çiftimiz apar topar köyün yolunu tutar. Babasının mirasının açıklanması ise herkesin ikinci bir şok yaşamasına sebep olur çünkü babası tüm mirasını Tahsin’e bırakmıştır. Tahsin’in kardeşleri ve köylülerle açık olan arası bu haberden sonra iyice bozulur. Yalnız ortada kimsenin bilmediği bir gömü vardır ve kardeşler bu gömüyü bulmak için kolları sıvarlar. Olayların ardı arkası kesilmez iken Tahsin ve Hatice’nin de başına gelmeyen kalmaz. Tahsin ve Hatice ise tüm yaşadıklarından sonra kendilerine kalan mirası sürpriz bir şekilde değerlendirmeye karar verirler.
Format : Matroska at 14.6 Mb/s
Length : 11.1 GiB for 1 s 48dk 32s 240 ms
Video #0 : AVC at 13.0 Mb/s
Aspect : 1920 x 1080 (1.778) at 25.000 fps
Audio #0 : PCM at 1 536 kb/s
Infos : 2 kanal, 48.0 kHz
Cetin Ceviz 2 2016 Sansursuz 720p Web-DL x264 AC3 NOVA Torrent

Genişletmek için Tıkla!
11-04-2017 19:25 , DariusRz Tarafından Yüklendi.
Kaynaklar: 1 / İndirilen: 1 / Boyut: 5.73 GB / Tamamlandı: 123
Torrenti İndir  Torrenti Şikayet Et Torrent Tanımı
Kategori: Web-DL

Cetin Ceviz 2 2016 Sansursuz 720p x264 AC3 NOVA
Herkes tarafından uğursuz olarak görülen Hatice sonunda aradığı aşkı bulmuş ve Tahsin ile evlenmiştir. Düğün geceleri Tahsin’in babasının vefat haberi ile yeni evli çiftimiz apar topar köyün yolunu tutar. Babasının mirasının açıklanması ise herkesin ikinci bir şok yaşamasına sebep olur çünkü babası tüm mirasını Tahsin’e bırakmıştır. Tahsin’in kardeşleri ve köylülerle açık olan arası bu haberden sonra iyice bozulur. Yalnız ortada kimsenin bilmediği bir gömü vardır ve kardeşler bu gömüyü bulmak için kolları sıvarlar. Olayların ardı arkası kesilmez iken Tahsin ve Hatice’nin de başına gelmeyen kalmaz. Tahsin ve Hatice ise tüm yaşadıklarından sonra kendilerine kalan mirası sürpriz bir şekilde değerlendirmeye karar verirler.
Format : Matroska at 7 563 kb/s
Length : 5.73 GiB for 1 s 48dk 32s 240 ms
Video #0 : AVC at 6 025 kb/s
Aspect : 1280 x 720 (1.778) at 25.000 fps
Audio #0 : PCM at 1 536 kb/s
Infos : 2 kanal, 48.0 kHz
Cetin Ceviz 2 2016 Sansursuz BDRip x264 AC3 NOVA Torrent

Genişletmek için Tıkla!
11-04-2017 19:25 , DariusRz Tarafından Yüklendi.
Kaynaklar: 16 / İndirilen: 0 / Boyut: 2.54 GB / Tamamlandı: 768
Torrenti İndir  Torrenti Şikayet Et Torrent Tanımı
Kategori: Web-DL

Cetin Ceviz 2 2016 Sansursuz BDRip x264 AC3 NOVA
Herkes tarafından uğursuz olarak görülen Hatice sonunda aradığı aşkı bulmuş ve Tahsin ile evlenmiştir. Düğün geceleri Tahsin’in babasının vefat haberi ile yeni evli çiftimiz apar topar köyün yolunu tutar. Babasının mirasının açıklanması ise herkesin ikinci bir şok yaşamasına sebep olur çünkü babası tüm mirasını Tahsin’e bırakmıştır. Tahsin’in kardeşleri ve köylülerle açık olan arası bu haberden sonra iyice bozulur. Yalnız ortada kimsenin bilmediği bir gömü vardır ve kardeşler bu gömüyü bulmak için kolları sıvarlar. Olayların ardı arkası kesilmez iken Tahsin ve Hatice’nin de başına gelmeyen kalmaz. Tahsin ve Hatice ise tüm yaşadıklarından sonra kendilerine kalan mirası sürpriz bir şekilde değerlendirmeye karar verirler.
Format : Matroska at 3 348 kb/s
Length : 2.54 GiB for 1 s 48dk 32s 240 ms
Video #0 : AVC at 1 810 kb/s
Aspect : 720 x 408 (1.765) at 25.000 fps
Audio #0 : PCM at 1 536 kb/s
Infos : 2 kanal, 48.0 kHz
Icerde Bolum 29 Sansursuz 1080p Web-DL x264 AC3 NOVA Torrent

Genişletmek için Tıkla!
11-04-2017 16:11 , DariusRz Tarafından Yüklendi.
Kaynaklar: 2 / İndirilen: 0 / Boyut: 1.94 GB / Tamamlandı: 134
Torrenti İndir  Torrenti Şikayet Et Torrent Tanımı
Kategori: Web-DL

Icerde Bolum 29 Sansursuz 1080p Web-DL x264 AC3 NOVA
Format : Matroska at 2 129 kb/s
Length : 1.94 GiB for 2 s 10dk 44s 154 ms
Video #0 : AVC at 2 000 kb/s
Aspect : 1920 x 1080 (1.778) at 25.000 fps
Audio #0 : AC-3 at 192 kb/s
Infos : 2 kanal, 44.1 kHz
Cesur ve Guzel Bolum 21 Sansursuz 720p Web-DL x264 AC3 NOVA Torrent

Genişletmek için Tıkla!
07-04-2017 16:16 , DariusRz Tarafından Yüklendi.
Kaynaklar: 0 / İndirilen: 0 / Boyut: 1.95 GB / Tamamlandı: 42
Torrenti İndir  Torrenti Şikayet Et Torrent Tanımı
Kategori: Web-DL

Cesur ve Guzel Bolum 21 Sansursuz 720p Web-DL x264 AC3 NOVA
Format : Matroska at 2 094 kb/s
Length : 1.95 GiB for 2 s 13dk 15s 761 ms
Video #0 : AVC at 2 000 kb/s
Aspect : 1920 x 1080 (1.778) at 25.000 fps
Audio #0 : Opus at 103 kb/s
Infos : 2 kanal, 48.0 kHz
Dirilis ''Ertugrul'' Bolum 83 720p Web-DL x264 NOVA Torrent

Genişletmek için Tıkla!
06-04-2017 01:38 , DariusRz Tarafından Yüklendi.
Kaynaklar: 4 / İndirilen: 0 / Boyut: 2.15 GB / Tamamlandı: 316
Torrenti İndir  Torrenti Şikayet Et Torrent Tanımı
Kategori: Web-DL

Dirilis ''Ertugrul'' Bolum 83 720p Web-DL x264 NOVA
Format : Matroska at 2 124 kb/s
Length : 2.15 GiB for 2 s 25dk 8s 825 ms
Video #0 : AVC at 1 999 kb/s
Aspect : 1280 x 720 (1.778) at 23.976 fps
Audio #0 : AAC at 128 kb/s
Infos : 2 kanal, 44.1 kHz
Kara Yazi Bolum 2 720p Web-DL x264 AC3 NOVA Torrent

Genişletmek için Tıkla!
05-04-2017 02:21 , DariusRz Tarafından Yüklendi.
Kaynaklar: 0 / İndirilen: 0 / Boyut: 1.88 GB / Tamamlandı: 15
Torrenti İndir  Torrenti Şikayet Et Torrent Tanımı
Kategori: Web-DL

Kara Yazi Bolum 2 720p Web-DL x264 AC3 NOVA
Format : Matroska at 2 193 kb/s
Length : 1.88 GiB for 2 s 3dk 2s 40 ms
Video #0 : AVC at 2 000 kb/s
Aspect : 1280 x 720 (1.778) at 25.000 fps
Audio #0 : AC-3 at 192 kb/s
Infos : 2 kanal, 48.0 kHz
Hayat Var 2008 Sansursuz 1080p Web-DL x264 AC3 NOVA Torrent

Genişletmek için Tıkla!
05-04-2017 01:34 , DariusRz Tarafından Yüklendi.
Kaynaklar: 3 / İndirilen: 0 / Boyut: 2.29 GB / Tamamlandı: 161
Torrenti İndir  Torrenti Şikayet Et Torrent Tanımı Tanıtım Videosu
IMDB Puanı: 7.5 7.5/10
Kategori: Web-DL
http://www.imdb.com/title/tt1370212/

Hayat Var 2008 Sansursuz 1080p Web-DL x264 AC3 NOVA
14 yaşındaki Hayat, babası ve yatalak dedesi ile birlikte, İstanbul Boğazı'na açılan bir dere ağzına kurulmuş ahşap bir evde yaşamaktadır. Babası ailenin hayatta kalmasını sağlamak için küçük teknesiyle bu sularda balıkçılık yaparken, bir taraftan da bazı yasadışı işler yapmaktadır. Hayat bu zorlu, sert ve acımasız dünyaya doğmuştur ama yaşama sıkı sıkıya sarılır. Dünyadaki adaletsizliklere karşı cesaretini, dayanıklılığını ve umudunu yitirmez.
Format : Matroska at 2 691 kb/s
Length : 2.29 GiB for 2 s 1dk 46s 848 ms
Video #0 : AVC at 2 500 kb/s
Aspect : 1920 x 1080 (1.778) at 30.000 fps
Audio #0 : AC-3 at 192 kb/s
Infos : 2 kanal, 48.0 kHz
Language : tr
The Assignment 2017 720p TrSub Web-DL x264 AC3 NOVA Torrent

Genişletmek için Tıkla!
04-04-2017 20:03 , DariusRz Tarafından Yüklendi.
Kaynaklar: 4 / İndirilen: 0 / Boyut: 2.85 GB / Tamamlandı: 187
Torrenti İndir  Torrenti Şikayet Et Torrent Tanımı Tanıtım Videosu
IMDB Puanı: 4.5 4.5/10
Kategori: Web-DL
http://www.imdb.com/title/tt5034474/

The Assignment 2017 720p TrSub Web-DL x264 AC3 NOVA

+18 Sahneler Mevcut !





2017 ABD ve Fransa ortak yapımı olan Tomboy, gangsterler tarafından ihanete uğrayıp, bir kadın doktor sayesinde hayata dönen ve intikam almak için harekete geçen Frank Kitchen adlı genç kadının, serüvenlerini ele almaktadır.


Format : Matroska at 4 296 kb/s
Length : 2.85 GiB for 1 s 34dk 49s 696 ms
Video #0 : AVC at 3 999 kb/s
Aspect : 1280 x 528 (2.424) at 23.976 fps
Audio #0 : AC-3 at 384 kb/s
Infos : 6 kanal, 48.0 kHz
Language : en
Text #0 : UTF-8
Language : tr




Icerde Bolum 28 Sansursuz 1080p Web-DL x264 AC3 NOVA Torrent

Genişletmek için Tıkla!
04-04-2017 05:11 , DariusRz Tarafından Yüklendi.
Kaynaklar: 2 / İndirilen: 0 / Boyut: 2.63 GB / Tamamlandı: 185
Torrenti İndir  Torrenti Şikayet Et Torrent Tanımı
Kategori: Web-DL

Icerde Bolum 28 Sansursuz 1080p Web-DL x264 AC3 NOVA
Format : Matroska at 2 694 kb/s
Length : 2.63 GiB for 2 s 19dk 42s 624 ms
Video #0 : AVC at 2 500 kb/s
Aspect : 1920 x 1080 (1.778) at 25.000 fps
Audio #0 : AC-3 at 192 kb/s
Infos : 2 kanal, 44.1 kHz
Fi Bolum 1-3 Boxset 1080p Web-DL AAC x264 NOVA Torrent

Genişletmek için Tıkla!
01-04-2017 14:31 , TapOut Tarafından Yüklendi.
Kaynaklar: 30 / İndirilen: 1 / Boyut: 3.67 GB / Tamamlandı: 1,836
Torrenti İndir  Torrenti Şikayet Et Torrent Tanımı
Kategori: Web-DL

Fi Bolum 1-3 Boxset 1080p Web-DL AAC x264 NOVA



Dizide +18 Sahneler bulunmaktadır bilginize!!

Bir adam bir kadını sever ve dünya değişir. Ama hayatı kökten değiştiren, aşkı değil, aşkına ulaşabilmek için cesaret edebildikleridir. O kişiye duyduğu aşkın acımasızlığında öylesine büyük fırtınalar başlatır ki, sonunda, dokunduğu her şeyi yıkar. Ve bazen... Hayatın kendini yenilemesi için önce her şeyin yıkılması şarttır.

Format : Matroska at 2 498 kb/s
Length : 1.35 GiB for 1 s 17dk 17s 98 ms
Video #0 : AVC at 2 305 kb/s
Aspect : 1920 x 1080 (1.778) at 25.000 fps
Audio #0 : AAC at 192 kb/s
Infos : 1 kanal, 48.0 kHz
Language : tr
-----------------------------------
Format : Matroska at 2 493 kb/s
Length : 1.19 GiB for 1 s 8dk 22s 656 ms
Video #0 : AVC at 2 302 kb/s
Aspect : 1920 x 1080 (1.778) at 25.000 fps
Audio #0 : AAC at 192 kb/s
Infos : 1 kanal, 48.0 kHz
Language : tr
------------------------------------
Format : Matroska at 2 497 kb/s
Length : 1.13 GiB for 1 s 4dk 33s 899 ms
Video #0 : AVC at 2 303 kb/s
Aspect : 1920 x 1080 (1.778) at 25.000 fps
Audio #0 : AAC at 192 kb/s
Infos : 1 kanal, 48.0 kHz
Language : tr





Bu Dunyanin Disinda The Space Between Us 2017 TrSub 720p HDRip x264 AC3 - EVO Torrent

Genişletmek için Tıkla!
31-03-2017 01:30 , DariusRz Tarafından Yüklendi.
Kaynaklar: 4 / İndirilen: 0 / Boyut: 2.69 GB / Tamamlandı: 222
Torrenti İndir  Torrenti Şikayet Et Torrent Tanımı Tanıtım Videosu
IMDB Puanı: 6.4 6.4/10
Kategori: Web-DL
http://www.imdb.com/title/tt3922818/

Bu Dunyanin Disinda The Space Between Us 2017 TrSub 720p HDRip x264 AC3 - EVO
Mars'ta yaşamın ilk adımlarını atmak için 6 astronot uzaya gönderilir. Uzay mekiğinde doğan Gardner Elliot (Butterfield), 16 sene sonra Dünya'ya geri getirilir ve buraya ayak uydurmaya çalışır. Mars'ın sessizliğinde ve turuncu-kızıl ortamında geçirdiği 16 yılın ardından Gardner, Dünya'nın seslerine ve insanlara alışmaya çalışır.
NASA'nın koordinatörünü Gary Oldman; Gardner Elliot karakterini ise The Boy In The Striped Pajamas ve Hugo filmleriyle tanınan Asa Butterfield canlandırmaktadır.
ViDEO: 3100 Kbps (L4.1@High)
RESOLUTiON: 1280x536
RUNTiME: 2h 0m 43s
SUBTiTLES: Korean (Hardcoded)
AUDiO: 192 Kbps AC3 2.0
LANGUAGE: ENGLiSH
Cesur ve Guzel Bolum 20 720p WEB-DL AAC x264 Torrent

Genişletmek için Tıkla!
31-03-2017 00:54 , DariusRz Tarafından Yüklendi.
Kaynaklar: 1 / İndirilen: 0 / Boyut: 1.41 GB / Tamamlandı: 73
Torrenti İndir  Torrenti Şikayet Et Torrent Tanımı
Kategori: Web-DL

Cesur ve Guzel Bolum 20 720p WEB-DL AAC x264
Format : Matroska at 1 431 kb/s
Length : 1.41 GiB for 2 s 20dk 41s 621 ms
Video #0 : AVC at 1 300 kb/s
Aspect : 1280 x 720 (1.778) at 25.000 fps
Audio #0 : AAC at 128 kb/s
Infos : 2 kanal, 48.0 kHz
Bu Sehir Arkandan Gelecek Bolum 13 Sansursuz 720p WEB-DL AAC x264 Torrent

Genişletmek için Tıkla!
30-03-2017 03:19 , DariusRz Tarafından Yüklendi.
Kaynaklar: 1 / İndirilen: 0 / Boyut: 1.35 GB / Tamamlandı: 30
Torrenti İndir  Torrenti Şikayet Et Torrent Tanımı
Kategori: Web-DL

Bu Şehir Arkandan Gelecek Bölüm 13 Sansürsüz 720p WEB-DL AAC x264
Format : Matroska at 1 435 kb/s
Length : 1.35 GiB for 2 s 14dk 20s 309 ms
Video #0 : AVC at 1 304 kb/s
Aspect : 1280 x 720 (1.778) at 25.000 fps
Audio #0 : AAC at 128 kb/s
Infos : 2 kanal, 48.0 kHz
Kara Yazi Bolum 01 480p Web-DL AAC x264 Torrent

Genişletmek için Tıkla!
29-03-2017 17:10 , DariusRz Tarafından Yüklendi.
Kaynaklar: 0 / İndirilen: 0 / Boyut: 1.2 GB / Tamamlandı: 30
Torrenti İndir  Torrenti Şikayet Et Torrent Tanımı
Kategori: Web-DL

Kara Yazi Bolum 01 480p Web-DL AAC x264
Format : Matroska at 1 122 kb/s
Length : 1.20 GiB for 2 s 32dk 42s 73 ms
Video #0 : AVC at 994 kb/s
Aspect : 640 x 480 (1.778) at 25.000 fps
Audio #0 : AAC at 125 kb/s
Infos : 2 kanal, 48.0 kHz
Icerde Bolum 27 Sansürsüz 720p WEB-DL Torrent

Genişletmek için Tıkla!
28-03-2017 15:09 , DariusRz Tarafından Yüklendi.
Kaynaklar: 2 / İndirilen: 0 / Boyut: 1.08 GB / Tamamlandı: 162
Torrenti İndir  Torrenti Şikayet Et Torrent Tanımı
Kategori: Web-DL

Icerde Bolum 27 Sansürsüz 720p WEB-DL

Format : MPEG-4 at 1 237 kb/s
Length : 1.08 GiB for 2 s 5dk 13s 746 ms
Video #0 : AVC at 1 108 kb/s
Aspect : 1280 x 720 (1.778) at 25.000 fps
Audio #0 : AAC at 126 kb/s
Infos : 2 kanal, 44.1 kHz
İsimsizler Bolum 01 720p Web-DL AC3 x264 NOVA Torrent

Genişletmek için Tıkla!
28-03-2017 02:24 , TapOut Tarafından Yüklendi.
Kaynaklar: 5 / İndirilen: 0 / Boyut: 2.53 GB / Tamamlandı: 410
Torrenti İndir  Torrenti Şikayet Et Torrent Tanımı
Kategori: Web-DL

İsimsizler Bolum 01 720p Web-DL AC3 x264 NOVA

Format : Matroska at 2 649 kb/s
Length : 2.53 GiB for 2 s 16dk 54s 816 ms
Video #0 : AVC at 2 454 kb/s
Aspect : 1280 x 720 (1.778) at 25.000 fps
Audio #0 : AC-3 at 192 kb/s
Infos : 2 kanal, 48.0 kHz
Language : tr



Bokeh 2017 TrSub 1080p WEB-DL DD5.1 H264 - FGT Torrent

Genişletmek için Tıkla!
27-03-2017 18:33 , DariusRz Tarafından Yüklendi.
Kaynaklar: 3 / İndirilen: 0 / Boyut: 3.17 GB / Tamamlandı: 118
Torrenti İndir  Torrenti Şikayet Et Torrent Tanımı Tanıtım Videosu
IMDB Puanı: 4.8 4.8/10
Kategori: Web-DL
http://www.imdb.com/title/tt3722062/

Bokeh 2017 TrSub 1080p WEB-DL DD5.1 H264 - FGT
İzlanda’ya doğru romantik bir tatil için yola çıkan çiftin, güzel geçen birkaç günün ardından inanılmaz bir ışık patlamasıyla hayatları tamamen değişir. Sabah uyandıklarında etrafta kimseyi göremeyen genç çift, ilk başta bu garipliği göz ardı ederek bunu eğlenceye dönüştürürler, ta ki işin altında rahatsız edici bir gizemin olduğunu anlayana kadar.
[Video Bitrate]:.............: 4946 kbps
[Duration]:.............: 1h 31mn
[Video Codec]:.............: AVC
[Resolution]:.............: 1904x800 px
[Aspect Ratio]:.............: 2.40:1
[Audio Codec]:.............: AC-3
[Audio Bitrate]:.............: 384 kbps
[Audio Channels]:.............: 5.1ch
[Audio Language]:.............: English
Karanligin Elli Tonu Fifty Shades Darker 2017 TrSub WEBRip x264 - STUTTERSHIT Torrent

Genişletmek için Tıkla!
26-03-2017 16:41 , DariusRz Tarafından Yüklendi.
Kaynaklar: 10 / İndirilen: 0 / Boyut: 897.98 MB / Tamamlandı: 417
Torrenti İndir  Torrenti Şikayet Et Torrent Tanımı Tanıtım Videosu
IMDB Puanı: 4.7 4.7/10
Kategori: Web-DL
http://www.imdb.com/title/tt4465564/

Karanlığın Elli Tonu Fifty Shades Darker 2017 TrSub WEBRip x264 - STUTTERSHIT
Ruhu yaralı genç girişimci Christian Grey’in karanlık sırlarının yıldırdığı Anastasia Steele, ilişkilerine son noktayı koyup bir yayınevinde çalışmaya başlar. Ama Grey’e duyduğu karşı konulmaz çekim hâlâ etkisini sürdürmektedir. Grey yeni bir teklifle gelince ona karşı koyamaz. Nihayet her şey daha iyiye gidiyor gibi göründüğü sırada birden geçmişin hayaletleri ortaya çıkar. Anastasia, sorunlu, hırslı ve talepkâr Elli Ton’un sinir bozucu geçmişi hakkında, tahminlerinin çok ötesinde şeyler öğrenir ve ilişkileri bir kez daha tehdit altına girer. Grey içindeki şeytanlarla savaşırken,Ana kendinden önce Christian’ın hayatına girmiş olan kadınlara yönelik öfkesi ve kıskançlığıyla baş etmek ve hayatının en önemli kararını vermek zorundadır. Ve bu kararı tek başına vermelidir...
Video
ID : 1
Format : AVC
Format/Info : Advanced Video Codec
Format profile : High@L3.1
Format settings, CABAC : Yes
Format settings, ReFrames : 5 frames
Codec ID : avc1
Codec ID/Info : Advanced Video Coding
Duration : 1h 42mn
Bit rate : 1 100 Kbps
Width : 720 pixels
Height : 304 pixels
Display aspect ratio : 2.40:1
Frame rate mode : Constant
Frame rate : 25.000 fps
Color space : YUV
Chroma subsampling : 4:2:0
Bit depth : 8 bits
Scan type : Progressive
Bits/(Pixel*Frame) : 0.201
Stream size : 800 MiB (89%)
Audio
ID : 2
Format : AAC
Format/Info : Advanced Audio Codec
Format profile : LC
Codec ID : 40
Duration : 1h 42mn
Duration_LastFrame : 43ms
Bit rate mode : Variable
Bit rate : 128 Kbps
Maximum bit rate : 31.3 Mbps
Channel(s) : 2 channels
Channel positions : Front: L R
Sampling rate : 48.0 KHz
Frame rate : 46.875 fps (1024 spf)
Compression mode : Lossy
Stream size : 93.8 MiB (10%)
Title : Fifty.Shades.Darker.2017.HC.WEBRip.x264-STUTTERSHIT
Default : Yes
Alternate group : 1
Vay Arkadas 2010 Sansursuz WebRip AC3 TR x264 NOVA Torrent

Genişletmek için Tıkla!
24-03-2017 17:40 , TapOut Tarafından Yüklendi.
Kaynaklar: 14 / İndirilen: 0 / Boyut: 1.36 GB / Tamamlandı: 417
Torrenti İndir  Torrenti Şikayet Et Torrent Tanımı Tanıtım Videosu
IMDB Puanı: 6.5 6.5/10
Kategori: Web-DL
http://www.imdb.com/title/tt1772416/

Vay Arkadas 2010 Sansursuz WebRip AC3 TR x264 NOVA





Blu tv'den NOVA kalitesiyle kendimce kayıt edilip riplenmiştir!nova
Ufak tefek üçkağıtlar, türlü dolaplarla oradan buradan elde ettikleri avantalar ve bazen de ufak çapta araba soygunları ile hayatlarını devam ettirmektedirler. Ama son yaptıkları soygun işinde başları iyice belaya girip hapisle tanışınca bu işlere tövbe etmek zorunda kalırlar... Ta ki eski bir sinemanın makine dairesinde yoksul ve perişan bir hayat yaşayan, Dildo'nun babası Efendi'nin amansız bir hastalığa yakalanıp da tedavisi için yüklü bir miktar para gerekinceye kadar?


Format : Matroska at 1 955 kb/s
Length : 1.36 GiB for 1 s 39dk 25s 344 ms
Video #0 : AVC at 1 776 kb/s
Aspect : 720 x 408 (1.765) at 25.000 fps
Audio #0 : AC-3 at 192 kb/s
Infos : 2 kanal, 48.0 kHz
Language : tr







Vay Arkadas 2010 Sansursuz 1080p Web-DL AC3 TR x264 NOVA Torrent

Genişletmek için Tıkla!
24-03-2017 17:39 , TapOut Tarafından Yüklendi.
Kaynaklar: 6 / İndirilen: 0 / Boyut: 4.3 GB / Tamamlandı: 210
Torrenti İndir  Torrenti Şikayet Et Torrent Tanımı Tanıtım Videosu
IMDB Puanı: 6.5 6.5/10
Kategori: Web-DL
http://www.imdb.com/title/tt1772416/

Vay Arkadas 2010 Sansursuz 1080p Web-DL AC3 TR x264 NOVA





Blu tv'den NOVA kalitesiyle kendimce kayıt edilip riplenmiştir!nova
Ufak tefek üçkağıtlar, türlü dolaplarla oradan buradan elde ettikleri avantalar ve bazen de ufak çapta araba soygunları ile hayatlarını devam ettirmektedirler. Ama son yaptıkları soygun işinde başları iyice belaya girip hapisle tanışınca bu işlere tövbe etmek zorunda kalırlar... Ta ki eski bir sinemanın makine dairesinde yoksul ve perişan bir hayat yaşayan, Dildo'nun babası Efendi'nin amansız bir hastalığa yakalanıp da tedavisi için yüklü bir miktar para gerekinceye kadar?


Format : Matroska at 6 196 kb/s
Length : 4.30 GiB for 1 s 39dk 25s 344 ms
Video #0 : AVC at 6 000 kb/s
Aspect : 1920 x 1080 (1.778) at 25.000 fps
Audio #0 : AC-3 at 256 kb/s
Infos : 2 kanal, 48.0 kHz
Language : tr







Cesur ve Güzel BL 19 Sansursuz 1080p WEB-DL x264 Torrent

Genişletmek için Tıkla!
24-03-2017 01:35 , DariusRz Tarafından Yüklendi.
Kaynaklar: 1 / İndirilen: 0 / Boyut: 2.74 GB / Tamamlandı: 79
Torrenti İndir  Torrenti Şikayet Et Torrent Tanımı
Kategori: Web-DL

Cesur ve Güzel BL 19 Sansursuz 1080p WEB-DL x264
Format : MPEG-4 at 2 817 kb/s
Length : 2.74 GiB for 2 s 19dk 15s 701 ms
Video #0 : AVC at 2 688 kb/s
Aspect : 1920 x 1080 (1.778) at 25.000 fps
Audio #0 : AAC at 126 kb/s
Infos : 2 kanal, 44.1 kHz


Bu Şehir Arkandan Gelecek BL 12 Sansursuz 1080p WEB-DL x264 Torrent

Genişletmek için Tıkla!
24-03-2017 01:17 , DariusRz Tarafından Yüklendi.
Kaynaklar: 0 / İndirilen: 0 / Boyut: 2.67 GB / Tamamlandı: 19
Torrenti İndir  Torrenti Şikayet Et Torrent Tanımı
Kategori: Web-DL

Bu Şehir Arkandan Gelecek BL 12 Sansursuz 1080p WEB-DL x264
Format : MPEG-4 at 2 812 kb/s
Length : 2.67 GiB for 2 s 15dk 49s 20 ms
Video #0 : AVC at 2 683 kb/s
Aspect : 1920 x 1080 (1.778) at 25.000 fps
Audio #0 : AAC at 126 kb/s
Infos : 2 kanal, 44.1 kHz
Ve Panayir Köyden Gider 2015 WebRip AC3 TR x264 NOVA Torrent

Genişletmek için Tıkla!
22-03-2017 15:21 , TapOut Tarafından Yüklendi.
Kaynaklar: 6 / İndirilen: 0 / Boyut: 1.37 GB / Tamamlandı: 214
Torrenti İndir  Torrenti Şikayet Et Torrent Tanımı Tanıtım Videosu
IMDB Puanı: 6.0 6.0/10
Kategori: Web-DL
http://www.imdb.com/title/tt3986926/

Ve Panayir Köyden Gider 2015 WebRip AC3 TR x264 NOVA





Yaşam ve ölüm arasında sıkışıp kalmış bir köyün hikâyesini anlatan filmde, geçmişlerini unutmak isteyen köy ahalisi ile kendi geçmişini yakalamak ve onunla yüzleşmek isteyen bir yabancının öyküsü anlatılıyor. Ne var ki köye gelen bu davetsiz yabancı bir süre sonra adeta yaşam belirtisinin olmadığı, her anın bir kısır döngü içerisinde kendisinden önce olan bitenin taklidi haline gelen bu köyde kısılıp kalır. Köylü bu yabancıya önce merak, sonrasındaysa şüpheyle yaklaşır. Ne var ki bu davetsiz misafir, köy ahalisinin kuytuda kalmış karanlık anılarını tekrar canlandıracaktır. Peki kimdir bu yabancı? Geçmişin hayaleti mi yoksa yarın doğacak olan güneş mi?


Format : Matroska at 1 991 kb/s
Length : 1.37 GiB for 1 s 38dk 24s 96 ms
Video #0 : AVC at 1 797 kb/s
Aspect : 720 x 392 (1.837) at 24.000 fps
Audio #0 : AC-3 at 192 kb/s
Infos : 2 kanal, 48.0 kHz
Language : tr







Ve Panayir Köyden Gider 2015 1080p Web-DL AC3 TR x264 NOVA Torrent

Genişletmek için Tıkla!
22-03-2017 15:21 , TapOut Tarafından Yüklendi.
Kaynaklar: 1 / İndirilen: 0 / Boyut: 3.73 GB / Tamamlandı: 64
Torrenti İndir  Torrenti Şikayet Et Torrent Tanımı Tanıtım Videosu
IMDB Puanı: 6.0 6.0/10
Kategori: Web-DL
http://www.imdb.com/title/tt3986926/

Ve Panayir Köyden Gider 2015 1080p Web-DL AC3 TR x264 NOVA





Yaşam ve ölüm arasında sıkışıp kalmış bir köyün hikâyesini anlatan filmde, geçmişlerini unutmak isteyen köy ahalisi ile kendi geçmişini yakalamak ve onunla yüzleşmek isteyen bir yabancının öyküsü anlatılıyor. Ne var ki köye gelen bu davetsiz yabancı bir süre sonra adeta yaşam belirtisinin olmadığı, her anın bir kısır döngü içerisinde kendisinden önce olan bitenin taklidi haline gelen bu köyde kısılıp kalır. Köylü bu yabancıya önce merak, sonrasındaysa şüpheyle yaklaşır. Ne var ki bu davetsiz misafir, köy ahalisinin kuytuda kalmış karanlık anılarını tekrar canlandıracaktır. Peki kimdir bu yabancı? Geçmişin hayaleti mi yoksa yarın doğacak olan güneş mi?


Format : Matroska at 5 432 kb/s
Length : 3.73 GiB for 1 s 38dk 24s 96 ms
Video #0 : AVC at 5 046 kb/s
Aspect : 1912 x 1032 (1.853) at 24.000 fps
Audio #0 : AC-3 at 384 kb/s
Infos : 6 kanal, 48.0 kHz
Language : tr







Dağ 2 2016 Sansurlu WebRip AC3 TR x264 NOVA Torrent

Genişletmek için Tıkla!
19-03-2017 00:12 , TapOut Tarafından Yüklendi.
Kaynaklar: 17 / İndirilen: 0 / Boyut: 1.37 GB / Tamamlandı: 811
Torrenti İndir  Torrenti Şikayet Et Torrent Tanımı Tanıtım Videosu
IMDB Puanı: 9.9 9.9/10
Kategori: Web-DL
http://www.imdb.com/title/tt5813916/

Dağ 2 2016 Sansurlu WebRip AC3 TR x264 NOVA





Teröristlerin elinden kurtulmayı başaran iki arkadaş Oğuz ve Bekir, 6 yıl sonra özel bir görev için Özel Kuvvetler 8. Muharebe Arama Kurtarma Timi'ne katılır. Timin özel görevi ise Kuzey Irak'ta bir terör örgütü tarafından kaçırılan gazeteci Ceyda Balaban'ı kurtarmaktır. Ancak bu sefer düşman geçmişteki gibi bir tane değildir. MAK'ın karşısında bu acımasız coğrafyada birbiriyle çatışan birden fazla kuvvet vardır ve işler bu sefer hiç olmadığı kadar zordur.
Gişede başarı kazanan Dağ filminin ardından gelen devam filmi Dağ 2 filminde yine başrolleri Çağlar Ertuğrul ve Ufuk Bayraktar paylaşırken Alper Çağlar da filmin yönetmenliğini ve senaristliğini üstleniyor.


Format : Matroska at 1 523 kb/s
Length : 1.37 GiB for 2 s 8dk 37s 33 ms
Video #0 : AVC at 1 329 kb/s
Aspect : 720 x 320 (2.250) at 30.000 fps
Audio #0 : AC-3 at 192 kb/s
Infos : 2 kanal, 48.0 kHz
Language : tr







Dağ 2 2016 Sansurlu 720p Web-DL AC3 TR x264 NOVA Torrent

Genişletmek için Tıkla!
18-03-2017 21:26 , TapOut Tarafından Yüklendi.
Kaynaklar: 5 / İndirilen: 0 / Boyut: 3.5 GB / Tamamlandı: 530
Torrenti İndir  Torrenti Şikayet Et Torrent Tanımı Tanıtım Videosu
IMDB Puanı: 9.9 9.9/10
Kategori: Web-DL
http://www.imdb.com/title/tt5813916/

Dağ 2 2016 Sansurlu 720p Web-DL AC3 TR x264 NOVA





Teröristlerin elinden kurtulmayı başaran iki arkadaş Oğuz ve Bekir, 6 yıl sonra özel bir görev için Özel Kuvvetler 8. Muharebe Arama Kurtarma Timi'ne katılır. Timin özel görevi ise Kuzey Irak'ta bir terör örgütü tarafından kaçırılan gazeteci Ceyda Balaban'ı kurtarmaktır. Ancak bu sefer düşman geçmişteki gibi bir tane değildir. MAK'ın karşısında bu acımasız coğrafyada birbiriyle çatışan birden fazla kuvvet vardır ve işler bu sefer hiç olmadığı kadar zordur.
Gişede başarı kazanan Dağ filminin ardından gelen devam filmi Dağ 2 filminde yine başrolleri Çağlar Ertuğrul ve Ufuk Bayraktar paylaşırken Alper Çağlar da filmin yönetmenliğini ve senaristliğini üstleniyor.


Format : Matroska at 3 896 kb/s
Length : 3.50 GiB for 2 s 8dk 37s 7 ms
Video #0 : AVC at 3 700 kb/s
Aspect : 1280 x 564 (2.270) at 30.031 fps
Audio #0 : AC-3 at 192 kb/s
Infos : 2 kanal, 48.0 kHz
Language : tr







Dag 2012 1080p Web-DL AC3 x264 NOVA Torrent

Genişletmek için Tıkla!
11-03-2017 23:53 , TapOut Tarafından Yüklendi.
Kaynaklar: 12 / İndirilen: 0 / Boyut: 2.91 GB / Tamamlandı: 648
Torrenti İndir  Torrenti Şikayet Et Torrent Tanımı Tanıtım Videosu
IMDB Puanı: 8.4 8.4/10
Kategori: Web-DL
http://www.imdb.com/title/tt2471640/

Dag 2012 1080p Web-DL AC3 x264 NOVA




İngilizce altyazı bulunmaktadır.
İstanbullu Oğuz bedelli askerliği tercih etmek yerine vatani görevinini kısa dönem olarak bölüğünde yerine getirmeyi tercih eder. Keçiörenli Bedir ise ne askerlerle ne komutanlarla iyi geçinebilen, başlı başına arıza bir uzun dönem erdir. Asiliğinden dolayı aldığı cezalarla da askerliği iki sene uzamıştır. Oğuz ile sürekli dalaşan ve ona ters giden Bedir, "poşetsin sen" diye küçümsediği dönemdaşıyla omuz omuza mücadeleye gireceğinden de habersizdir. Bu bölükten bir ekip, bir iletişim anteninin tamiri için görevlendirilir. Fakat habersiz biçimde teröristlerin pususuna düşerler. Ekipten sadece Oğuz ve Bedir hayatta kalır. İki genç asker aralarındaki çekişmeyi bir kenara bırakıp karşılarındaki gerçek düşmana karşı koyarlar. Amansız hava koşulları ve coğrafyaya rağmen hayatta kalarak vatanı korumak birincil vazifeleridir.


Format : Matroska at 4 841 kb/s
Length : 2.91 GiB for 1 s 26dk 0s 334 ms

Video #0 : AVC at 4 391 kb/s
Aspect : 1920 x 1080 (1.778) at 24.000 fps

Audio #0 : AC-3 at 448 kb/s
Infos : 6 kanal, 48.0 kHz
Language : tr

Text #0 : UTF-8
Language : tr

Text #1 : UTF-8
Language : en







Zengin Kısmet 2016 Sansürsüz 720p WEB-DL AC3 NOVA Torrent

Genişletmek için Tıkla!
09-03-2017 19:26 , mserin Tarafından Yüklendi.
Kaynaklar: 13 / İndirilen: 2 / Boyut: 2 GB / Tamamlandı: 911
Torrenti İndir  Torrenti Şikayet Et Torrent Tanımı
Kategori: Web-DL

Zengin Kısmet 2016 Sansürsüz 720p WEB-DL AC3 NOVA

Cüneyt, yeni tanıştığı Sude ile mezuniyet partisine gitmeyi planlarken babası Kadri'den tüm mal varlıklarına el konulduğunu, Sude de annesi Ayla'dan yatırımlarının başarısızlıkla sonuçlandığını ve iflas ettiklerini öğrenirler. Sude ve Cüneyt ailelerinin zengin eş bulma baskısı sonucu, Cüneyt stajını yapmak için Dalyan’a, Sude de uzaklaşmak için tatile çıkmaya karar verir. Cüneyt ve Sude'nin yolları Dalyan’da bir otelde kesişirken, Kadri ve Ayla’nın yolları ise İstanbul’da, çoçukları için zengin bir kısmet ararken kesişir. Bundan sonra olaylar farklı bir yöne doğru gitmeye başlar.
Format : Matroska at 3 193 kb/s
Length : 2.00 GiB for 1 h 29 min 34 s 752 ms
Video #0 : xvid at 2 999 kb/s
Aspect : 1280 x 720 (1.778) at 25.000 fps
Audio #0 : AC-3 at 192 kb/s
Infos : 2 channels, 48.0 kHz
Language : tr
100 Kız 100 Girls 2000 WEB-DL 720p x264 ENG Torrent

Genişletmek için Tıkla!
04-03-2017 23:46 , dadashmrt Tarafından Yüklendi.
Kaynaklar: 3 / İndirilen: 0 / Boyut: 2.91 GB / Tamamlandı: 206
Torrenti İndir  Torrenti Şikayet Et Torrent Tanımı Tanıtım Videosu
IMDB Puanı: 5.9 5.9/10
Kategori: Web-DL
http://www.imdb.com/title/tt0214388/

100 Kız - 100 Girls 2000 WEB-DL 720p x264 ENG






Altyazı sunuma dahildir.

Not : +18 gençlik komedi filmidir.


Bu gençlik komedisinde, Matthew (Jonathan Tucker) isimli üniversite birinci sınıf öğrencisi yurttaki asansörde hayatının aşkına rastlar; ama şöyle bir sorun vardır, o sırada elektrikler kesilmiştir. Matthew, rüyalarının kızının yüzünü göremese bile, hislerine kulak vermiş ve onun doğru kişi olduğunu anlamıştır. Elektrikler geldiğinde kız ortadan kaybolmuştur. Matthew'un tek bildiği, kızın yurtta kaldığıdır. Artık tek amacı kızı bulmaktır. Peki bu kız kimdir? Wendy mi Dora mı Arlene mi Patty mi yoksa Cynthia mı?


Genişlet PHP:

Genel
Tam isim 
:100 Kız 100 Girls 2000 WEB-DL 720p x264 ENG.mkv
Biçim 
:Matroska
Dosya boyutu 
:2.91 GiB
Süre 
:1 s 37dk
Kapsamlı bit oranı 
:4 271 kb/s
Bit oranı 
:4 076 kb/s
Genişlik 
:1 280 piksel
Yükseklik 
:720 piksel
Ses
Biçim 
:AAC
Bit oranı 
:192 kb/s
Kanal 
:2 kanal
Dil 
:İngilizce
Metin
Biçim 
:UTF-8
Dil 
:Türkçe





Beta Test 2016 Web-DL TR x264 AC3 NOVA Torrent

Genişletmek için Tıkla!
02-03-2017 15:54 , TapOut Tarafından Yüklendi.
Kaynaklar: 4 / İndirilen: 0 / Boyut: 1.37 GB / Tamamlandı: 203
Torrenti İndir  Torrenti Şikayet Et Torrent Tanımı Tanıtım Videosu
IMDB Puanı: 6.5 6.5/10
Kategori: Web-DL
http://www.imdb.com/title/tt4244162/

Beta Test 2016 Web-DL TR x264 AC3 NOVA





"Spartaküs: Kan ve Kum" dizisindeki 'Crixus' karakteriyle tanınan Manu Bennett'in başroldeki Larenz Tate'e eşlik ettiği filmin yönetmeni Nicholas Gyeney. Video oyunlarının şampiyonlarından Max Troy, Sentinel isimli firmanın yeni çıkardığı ve henüz yapım aşamasında olan bir fps oyununu test etmektedir. Max, oyunda yaptığı bazı hamlelerin bir zaman sonra gerçek hayattaki kimi olaylara tesir ettiğini görür.



Format : Matroska at 2 227 kb/s
Length : 1.37 GiB for 1 s 28dk 0s 576 ms
Video #0 : AVC at 2 032 kb/s
Aspect : 720 x 312 (2.308) at 23.976 fps
Audio #0 : AC-3 at 192 kb/s
Infos : 2 kanal, 48.0 kHz
Language : tr







Beta Test 2016 1080p Web-DL AC3 TR EN DUAL x264 NOVA Torrent

Genişletmek için Tıkla!
02-03-2017 15:54 , TapOut Tarafından Yüklendi.
Kaynaklar: 0 / İndirilen: 0 / Boyut: 3.18 GB / Tamamlandı: 312
Torrenti İndir  Torrenti Şikayet Et Torrent Tanımı Tanıtım Videosu
IMDB Puanı: 6.5 6.5/10
Kategori: Web-DL
http://www.imdb.com/title/tt4244162/

Beta Test 2016 1080p Web-DL AC3 TR EN DUAL x264 NOVA






"Spartaküs: Kan ve Kum" dizisindeki 'Crixus' karakteriyle tanınan Manu Bennett'in başroldeki Larenz Tate'e eşlik ettiği filmin yönetmeni Nicholas Gyeney. Video oyunlarının şampiyonlarından Max Troy, Sentinel isimli firmanın yeni çıkardığı ve henüz yapım aşamasında olan bir fps oyununu test etmektedir. Max, oyunda yaptığı bazı hamlelerin bir zaman sonra gerçek hayattaki kimi olaylara tesir ettiğini görür.



Format : Matroska at 5 168 kb/s
Length : 3.18 GiB for 1 s 28dk 0s 576 ms
Video #0 : AVC at 4 557 kb/s
Aspect : 1904 x 816 (2.333) at 23.976 fps
Audio #0 : AC-3 at 224 kb/s
Infos : 2 kanal, 48.0 kHz
Language : tr
Audio #1 : AC-3 at 384 kb/s
Infos : 6 kanal, 48.0 kHz
Language : en
Text #0 : UTF-8
Language : tr