Torrent Kategoriler

A
B
C
D
E
F
G
H
I
J
K
L
M
N
O
P
Q
R
S
T
U
V
W
X
Y
Z
0-9
Quantum Break-SKIDROW Torrent

Genişletmek için Tıkla!
07-10-2016 12:47 , TURKNOVA Tarafından Yüklendi.
Kaynaklar: 0 / İndirilen: 1 / Boyut: 42.85 GB / Tamamlandı: 75
Torrenti İndir  Torrenti Şikayet Et Torrent Tanımı
Kategori: Oyun
Anonim Yükleyici

Quantum Break-SKIDROW



Tür: Aksiyon
Yayınevi: Deep Silver
Geliştirici: Techland
Boyutu: 6.93 GB
Oyun Çıkış Tarihi: 31 May 2016
Dil: İngilizce


Konu Başlığı: Quantum Break
Tür: Aksiyon, Macera

Oyun Çıkış Tarihi: 29 Eylül 2016
Dil: İngilizce


Minimum Sistem Gereksinimleri

OS: Windows 7 - 64 bit
İşlemci: Intel Core i5-4460, 2.70GHz or AMD FX-6300
Bellek: 8 GB RAM
Grafik: NVIDIA GeForce GTX 760 or AMD Radeon R7 260x

Sabit Disk: 68 GB

Direct X: Versiyon 11

Önerilen Sistem Gereksinimleri

OS: Windows 10 - 64 bit
İşlemci: Intel Core i5 4690, 3.9GHz or AMD equivalent
Bellek: 16 GB RAM
Grafik: NVIDIA GeForce GTX 970 or AMD Radeon R9 390

Sabit Disk: 68 GB

Direct X: Versiyon 11

EKLENECEK
Queen of the Desert 2015 bdrip x264 veto TRSub Torrent

Genişletmek için Tıkla!
25-03-2016 00:28 , husam95 Tarafından Yüklendi.
Kaynaklar: 0 / İndirilen: 0 / Boyut: 767.15 MB / Tamamlandı: 116
Torrenti İndir  Torrenti Şikayet Et Torrent Tanımı Tanıtım Videosu
IMDB Puanı: 5.7 5.7/10
Kategori: BDRip-BRRip
http://www.imdb.com/title/tt1837636/







Sunum içerisinde Türkçe alt yazı mevcuttur.



Sırayla gezgin, yazar, arkeolog, kaşif, kartograf ve yirminci yüzyılın başlarında İngiliz İmparatorluğu adına görev alan siyasi ataşe olan Gertrude Bell’in hikayesinin anlatıldığı filmde aslında halktan biri olan Bell, modern Irak ve Ürdün devletlerinin kurulmasına ve bu devletlerin ilk kralları olan Kral Abdullah ile Kral Faysal’ın seçilmesine yardımcı olmuş, iktidar belirlemiş bir kadındır.




Genişlet Kod:
General

Format : Matroska
Format version : Version 4 / Version 2
File size : 767 MiB
Duration : 2h 8mn
Overall bit rate : 836 Kbps
Encoded date : UTC 2016-02-10 11:17:57
Writing application : mkvmerge v7.0.0 ('Where We Going') 64bit built on Jun 9 2014 15:16:27
Writing library : libebml v1.3.0 + libmatroska v1.4.1

Video
ID : 1
Format : AVC
Format/Info : Advanced Video Codec
Format profile : High@L3.1
Format settings, CABAC : Yes
Format settings, ReFrames : 5 frames
Codec ID : V_MPEG4/ISO/AVC
Duration : 2h 8mn
Bit rate : 715 Kbps
Width : 720 pixels
Height : 302 pixels
Display aspect ratio : 2.40:1
Frame rate mode : Constant
Frame rate : 24.000 fps
Color space : YUV
Chroma subsampling : 4:2:0
Bit depth : 8 bits
Scan type : Progressive
Bits/(Pixel*Frame) : 0.137
Stream size : 656 MiB (86%)
Writing library : x264 core 148 r2665 a01e339
Encoding settings : cabac=1 / ref=5 / deblock=1:-2:-2 / analyse=0x3:0x133 / me=umh / subme=8 / psy=1 / psy_rd=0.90:0.00 / mixed_ref=1 / me_range=16 / chroma_me=1 / trellis=1 / 8x8dct=1 / cqm=0 / deadzone=21,11 / fast_pskip=0 / chroma_qp_offset=-2 / threads=9 / lookahead_threads=1 / sliced_threads=0 / nr=0 / decimate=1 / interlaced=0 / bluray_compat=0 / constrained_intra=0 / bframes=3 / b_pyramid=2 / b_adapt=2 / b_bias=0 / direct=3 / weightb=1 / open_gop=0 / weightp=2 / keyint=240 / keyint_min=24 / scenecut=40 / intra_refresh=0 / rc_lookahead=50 / rc=crf / mbtree=1 / crf=19.0 / qcomp=0.60 / qpmin=0 / qpmax=69 / qpstep=4 / ip_ratio=1.40 / aq=1:1.00
Language : English
Default : Yes
Forced : No
Color range : Limited
Matrix coefficients : BT.709

Audio
ID : 2
Format : AAC
Format/Info : Advanced Audio Codec
Format profile : LC
Codec ID : A_AAC
Duration : 2h 8mn
Bit rate : 119 Kbps
Channel(s) : 2 channels
Channel positions : Front: L R
Sampling rate : 48.0 KHz
Frame rate : 46.875 fps (1024 spf)
Compression mode : Lossy
Delay relative to video : 9ms
Stream size : 109 MiB (14%)
Language : English
Default : Yes
Forced : No