Torrent Kategoriler

A
B
C
D
E
F
G
H
I
J
K
L
M
N
O
P
Q
R
S
T
U
V
W
X
Y
Z
0-9
Logan 2017 Sansürsüz 720p TrSub HDTS x264 - DiRG Torrent

Genişletmek için Tıkla!
26-03-2017 02:38 , DariusRz Tarafından Yüklendi.
Kaynaklar: 29 / İndirilen: 1 / Boyut: 1.79 GB / Tamamlandı: 688
Torrenti İndir  Torrenti Şikayet Et Torrent Tanımı
Kategori: Cam-TS-Rip

Logan 2017 Sansürsüz 720p TrSub HDTS x264 - DiRG
Yakın gelecekte, yorgun savaşçı Logan'ın önemsediği tek şey hasta olan Profesör X'i Meksika sınırında saklamaktı. Ancak Logan'ın dünyadan ve kendi efsanesinden saklanma çabası, karanlık güçler tarafından takip edilen genç bir Mutant'ın gelişiyle sona erer.
Format : MPEG-4
Format profile : Base Media
Codec ID : isom (isom/iso2/avc1/mp41)
File size : 1.79 GiB
Duration : 2 h 11 min
Overall bit rate : 1 961 kb/s
Writing application : Lavf56.32.100
Video
ID : 1
Format : AVC
Format/Info : Advanced Video Codec
Format profile : High@L4
Format settings, CABAC : Yes
Format settings, ReFrames : 8 frames
Codec ID : avc1
Codec ID/Info : Advanced Video Coding
Duration : 2 h 11 min
Bit rate : 1 858 kb/s
Width : 1 280 pixels
Height : 528 pixels
Display aspect ratio : 2.40:1
Frame rate mode : Constant
Frame rate : 25.000 FPS
Color space : YUV
Chroma subsampling : 4:2:0
Bit depth : 8 bits
Scan type : Progressive
Bits/(Pixel*Frame) : 0.110
Stream size : 1.70 GiB (95%)
Writing library : x264 core 148 r2705 3f5ed56
Audio
ID : 2
Format : AAC
Format/Info : Advanced Audio Codec
Format profile : LC
Codec ID : 40
Duration : 2 h 11 min
Bit rate mode : Constant
Bit rate : 96.0 kb/s
Channel(s) : 2 channels
Channel positions : Front: L R
Sampling rate : 48.0 kHz
Frame rate : 46.875 FPS (1024 spf)
Compression mode : Lossy
Stream size : 89.9 MiB (5%)
Default : Yes
Alternate group : 1
Lanetli Çocuk The Boy 2016 TR BDRip AC3 x264 NOVA Torrent

Genişletmek için Tıkla!
14-03-2017 16:40 , TapOut Tarafından Yüklendi.
Kaynaklar: 16 / İndirilen: 1 / Boyut: 1.37 GB / Tamamlandı: 369
Torrenti İndir  Torrenti Şikayet Et Torrent Tanımı Tanıtım Videosu
IMDB Puanı: 6.0 6.0/10
Kategori: BRRip-BDRip
http://www.imdb.com/title/tt3882082/

Lanetli Çocuk The Boy 2016 TR BDRip AC3 x264 NOVA






Greta, yaşlı İngiliz bir çiftin evine dadı olarak işe başlar. Genç kadın dadılık yapacağı çocuğun neredeyse gerçek boyutlarda bir oyuncak bebek olduğunu anladığında ufak çaplı bir şok yaşar. Ancak yaşlı çift 20 sene önce kendi oğullarını kaybetmiş ve onun ölümüyle baş edebilmek için böyle bir yola başvurmuşlardır. Böylelikle Greta, haftasonu çift uzaktayken oyuncak bebekle evde kalmaya ikna olur. Gitmeden önce Greta'nın uyması gereken kuralların yazılı olduğu bir liste bırakırlar. Ancak Greta'nın en büyük kabusu gerçekleşir ve oyuncak bebeğin canlı olduğuna inanmaya başlar.




Format : Matroska at 2 004 kb/s
Length : 1.37 GiB for 1 s 37dk 47s 820 ms
Video #0 : AVC at 1 810 kb/s
Aspect : 720 x 304 (2.368) at 23.976 fps
Audio #0 : AC-3 at 192 kb/s
Infos : 2 kanal, 48.0 kHz
Language : tr







Lanetli Çocuk The Boy 2016 720p BluRay AC3 DUAL TR ENG x264 NOVA Torrent

Genişletmek için Tıkla!
14-03-2017 16:40 , TapOut Tarafından Yüklendi.
Kaynaklar: 4 / İndirilen: 1 / Boyut: 5.25 GB / Tamamlandı: 134
Torrenti İndir  Torrenti Şikayet Et Torrent Tanımı Tanıtım Videosu
IMDB Puanı: 6.0 6.0/10
Kategori: BluRay 720p
http://www.imdb.com/title/tt3882082/

Lanetli Çocuk The Boy 2016 720p BluRay AC3 DUAL TR ENG x264 NOVA






Greta, yaşlı İngiliz bir çiftin evine dadı olarak işe başlar. Genç kadın dadılık yapacağı çocuğun neredeyse gerçek boyutlarda bir oyuncak bebek olduğunu anladığında ufak çaplı bir şok yaşar. Ancak yaşlı çift 20 sene önce kendi oğullarını kaybetmiş ve onun ölümüyle baş edebilmek için böyle bir yola başvurmuşlardır. Böylelikle Greta, haftasonu çift uzaktayken oyuncak bebekle evde kalmaya ikna olur. Gitmeden önce Greta'nın uyması gereken kuralların yazılı olduğu bir liste bırakırlar. Ancak Greta'nın en büyük kabusu gerçekleşir ve oyuncak bebeğin canlı olduğuna inanmaya başlar.




Format : Matroska at 7 689 kb/s
Length : 5.25 GiB for 1 s 37dk 47s 872 ms
Video #0 : AVC at 5 988 kb/s
Aspect : 1280 x 536 (2.388) at 23.976 fps
Audio #0 : AC-3 at 192 kb/s
Infos : 2 kanal, 48.0 kHz
Language : tr
Audio #1 : DTS at 1 509 kb/s
Infos : 6 kanal, 48.0 kHz
Language : en







Lanetli Çocuk The Boy 2016 1080p BluRay AC3 DUAL TR ENG x264 NOVA Torrent

Genişletmek için Tıkla!
14-03-2017 16:40 , TapOut Tarafından Yüklendi.
Kaynaklar: 4 / İndirilen: 0 / Boyut: 8.67 GB / Tamamlandı: 127
Torrenti İndir  Torrenti Şikayet Et Torrent Tanımı Tanıtım Videosu
IMDB Puanı: 6.0 6.0/10
Kategori: BluRay 1080p
http://www.imdb.com/title/tt3882082/

Lanetli Çocuk The Boy 2016 1080p BluRay AC3 DUAL TR ENG x264 NOVA






Greta, yaşlı İngiliz bir çiftin evine dadı olarak işe başlar. Genç kadın dadılık yapacağı çocuğun neredeyse gerçek boyutlarda bir oyuncak bebek olduğunu anladığında ufak çaplı bir şok yaşar. Ancak yaşlı çift 20 sene önce kendi oğullarını kaybetmiş ve onun ölümüyle baş edebilmek için böyle bir yola başvurmuşlardır. Böylelikle Greta, haftasonu çift uzaktayken oyuncak bebekle evde kalmaya ikna olur. Gitmeden önce Greta'nın uyması gereken kuralların yazılı olduğu bir liste bırakırlar. Ancak Greta'nın en büyük kabusu gerçekleşir ve oyuncak bebeğin canlı olduğuna inanmaya başlar.




Format : Matroska at 12.7 Mb/s
Length : 8.67 GiB for 1 s 37dk 47s 872 ms
Video #0 : AVC at 11.0 Mb/s
Aspect : 1920 x 800 (2.400) at 23.976 fps
Audio #0 : AC-3 at 192 kb/s
Infos : 2 kanal, 48.0 kHz
Language : tr
Audio #1 : DTS at 1 509 kb/s
Infos : 6 kanal, 48.0 kHz
Language : en







Legion S01E05 1080p WEB-DL DD5.1 H264 TrSub Torrent

Genişletmek için Tıkla!
10-03-2017 09:14 , TURKNOVA Tarafından Yüklendi.
Kaynaklar: 2 / İndirilen: 0 / Boyut: 2.12 GB / Tamamlandı: 50
Torrenti İndir  Torrenti Şikayet Et Torrent Tanımı Tanıtım Videosu
IMDB Puanı: 8.8 8.8/10
Kategori: Yabancı Dizi
Anonim Yükleyicihttp://www.imdb.com/title/tt5114356/

Legion S01E05 1080p WEB DL DD5.1 H264 TrSub





Genişlet PHP:

General Legion S01E05 1080p WEB-DL DD5.1 H264 TrSub.mkv
Format 
Matroska at 5 575 kb/s
Length 
2.12 GiB for 54 min 23 s 40 ms
Video 
#0 : AVC at 5 189 kb/s
Aspect 1916 x 1076 (1.781at 23.976 fps
Audio 
#0 : AC-3 at 384 kb/s
Infos 6 channels48.0 kHz
Language 
en















Legion S01E04 1080p WEB-DL DD5.1 H264 TrSub Torrent

Genişletmek için Tıkla!
02-03-2017 23:38 , TURKNOVA Tarafından Yüklendi.
Kaynaklar: 2 / İndirilen: 0 / Boyut: 2.19 GB / Tamamlandı: 56
Torrenti İndir  Torrenti Şikayet Et Torrent Tanımı Tanıtım Videosu
IMDB Puanı: 8.8 8.8/10
Kategori: Yabancı Dizi
Anonim Yükleyicihttp://www.imdb.com/title/tt5114356/

Legion S01E04 1080p WEB DL DD5.1 H264 TrSub





altyazı sunuma dahildir



Kendisine akıl hastası, şizofreni teşhisi konulan ve çocukluğundan beri bununla mücadele eden David Haller'i (Dan Stevens) merkezine almaktadır. Hayallerinde bir kız ile tanışır ve herşey bir anda değişir. Gördüğü ve duyduğu tüm seslerin gerçek olma ihtimali ile karşı karşıyadır.


Genişlet PHP:

General Legion S01E04 1080p WEB-DL DD5.1 H264 TrSub.mkv
Format 
Matroska at 5 534 kb/s
Length 
2.19 GiB for 56dk 33s 600 ms

Video 
#0 : AVC at 5 148 kb/s
Aspect 1920 x 1080 (1.778at 23.976 fps

Audio 
#0 : AC-3 at 384 kb/s
Infos 6 kanal48.0 kHz
Language 
en



Legion S01E03 1080p WEB-DL DD5.1 H264 TrSub Torrent

Genişletmek için Tıkla!
24-02-2017 10:03 , TURKNOVA Tarafından Yüklendi.
Kaynaklar: 5 / İndirilen: 0 / Boyut: 1.82 GB / Tamamlandı: 80
Torrenti İndir  Torrenti Şikayet Et Torrent Tanımı Tanıtım Videosu
IMDB Puanı: 8.9 8.9/10
Kategori: Yabancı Dizi
Anonim Yükleyicihttp://www.imdb.com/title/tt5114356/

Legion S01E03 1080p WEB DL DD5.1 H264 TrSub





altyazı sunuma dahildir



Kendisine akıl hastası, şizofreni teşhisi konulan ve çocukluğundan beri bununla mücadele eden David Haller'i (Dan Stevens) merkezine almaktadır. Hayallerinde bir kız ile tanışır ve herşey bir anda değişir. Gördüğü ve duyduğu tüm seslerin gerçek olma ihtimali ile karşı karşıyadır.


Genişlet PHP:

General Legion S01E03 1080p WEB-DL DD5.1 H264 TrSub.mkv
Format 
Matroska at 5 598 kb/s
Length 
1.82 GiB for 46 min 28 s 352 ms

Video 
#0 : AVC at 5 213 kb/s
Aspect 1920 x 1080 (1.778at 23.976 fps

Audio 
#0 : AC-3 at 384 kb/s
Infos 6 channels48.0 kHz
Language 
en



Legion S01E02 1080p WEB-DL DD5.1 H264 TrSub Torrent

Genişletmek için Tıkla!
17-02-2017 09:36 , TURKNOVA Tarafından Yüklendi.
Kaynaklar: 4 / İndirilen: 0 / Boyut: 1.93 GB / Tamamlandı: 88
Torrenti İndir  Torrenti Şikayet Et Torrent Tanımı Tanıtım Videosu
IMDB Puanı: 9.0 9.0/10
Kategori: Yabancı Dizi
Anonim Yükleyicihttp://www.imdb.com/title/tt5114356/

Legion S01E02 1080p WEB DL DD5.1 H264 TrSub





altyazı sunuma dahildir



Kendisine akıl hastası, şizofreni teşhisi konulan ve çocukluğundan beri bununla mücadele eden David Haller'i (Dan Stevens) merkezine almaktadır. Hayallerinde bir kız ile tanışır ve herşey bir anda değişir. Gördüğü ve duyduğu tüm seslerin gerçek olma ihtimali ile karşı karşıyadır.


Genişlet PHP:

General Legion S01E02 1080p WEB-DL DD5.1 H264 TrSub.mkv
Format 
Matroska at 5 571 kb/s
Length 
1.93 GiB for 49 min 28 s 928 ms
Video 
#0 : AVC at 5 185 kb/s
Aspect 1920 x 1080 (1.778at 23.976 fps
Audio 
#0 : AC-3 at 384 kb/s
Infos 6 channels48.0 kHz
Language 
en



Lanetli Mesaj Friend Request 2016 1080p BluRay AC3 DUAL TR ENG x264 NOVA Torrent

Genişletmek için Tıkla!
15-02-2017 23:29 , TapOut Tarafından Yüklendi.
Kaynaklar: 3 / İndirilen: 2 / Boyut: 8.61 GB / Tamamlandı: 174
Torrenti İndir  Torrenti Şikayet Et Torrent Tanımı Tanıtım Videosu
IMDB Puanı: 5.4 5.4/10
Kategori: BluRay 1080p
http://www.imdb.com/title/tt3352390/

Lanetli Mesaj Friend Request 2016 1080p BluRay AC3 DUAL TR ENG x264 NOVA






Facebook'ta 800 arkadaşı olan Laura, üniversitenin popüler kızlarından biridir. Laura, bir gün sınıfın dışlanmış öğrencilerinden Marina'nın Facebook arkadaşlık isteğini kabul eder. Ancak Marina bu arkadaşlığı bir saplantıya dönüştürüp sürekli Laura ile ilgili paylaşımlar yapınca aralarında bir tartışma yaşanır ve Laura, Marina'yı arkadaş listesinden çıkartır. O andan itibaren Laura'nın hayatı lanetlenir ve arkadaşları bir bir öldürülmeye başlar. Laura'nın sosyal medya hesabını bir ruh ele geçirmiştir ve silinemeyen, esrarengiz, vahşet dolu videolar paylaşmaktadır.




Format: Matroska at 13.4 Mb/s
Length: 8.61 GiB for 1 s 32dk 14s 688 ms
Video #0: AVC at 12.5 Mb/s
Aspect: 1920 x 816 (2.353) at 23.976 fps
Audio #0: AC-3 at 640 kb/s
Infos: 6 kanal, 48.0 kHz
Language: en
Audio #1: AC-3 at 224 kb/s
Infos: 2 kanal, 48.0 kHz
Language: tr






Lanetli Mesaj Friend Request 2016 720p BluRay AC3 DUAL TR ENG x264 NOVA Torrent

Genişletmek için Tıkla!
15-02-2017 23:29 , TapOut Tarafından Yüklendi.
Kaynaklar: 6 / İndirilen: 0 / Boyut: 4.42 GB / Tamamlandı: 82
Torrenti İndir  Torrenti Şikayet Et Torrent Tanımı Tanıtım Videosu
IMDB Puanı: 5.4 5.4/10
Kategori: BluRay 720p
http://www.imdb.com/title/tt3352390/

Lanetli Mesaj Friend Request 2016 720p BluRay AC3 DUAL TR ENG x264 NOVA






Facebook'ta 800 arkadaşı olan Laura, üniversitenin popüler kızlarından biridir. Laura, bir gün sınıfın dışlanmış öğrencilerinden Marina'nın Facebook arkadaşlık isteğini kabul eder. Ancak Marina bu arkadaşlığı bir saplantıya dönüştürüp sürekli Laura ile ilgili paylaşımlar yapınca aralarında bir tartışma yaşanır ve Laura, Marina'yı arkadaş listesinden çıkartır. O andan itibaren Laura'nın hayatı lanetlenir ve arkadaşları bir bir öldürülmeye başlar. Laura'nın sosyal medya hesabını bir ruh ele geçirmiştir ve silinemeyen, esrarengiz, vahşet dolu videolar paylaşmaktadır.




Format: Matroska at 6 854 kb/s
Length: 4.42 GiB for 1 s 32dk 14s 688 ms
Video #0 : AVC at 5 999 kb/s
Aspect : 720 x 304 (2.353) at 23.976 fps
Audio #0: AC-3 at 640 kb/s
Infos: 6 kanal, 48.0 kHz
Language: en
Audio #1: AC-3 at 224 kb/s
Infos: 2 kanal, 48.0 kHz
Language: tr






Lanetli Mesaj Friend Request 2016 TR BDRip AC3 x264 NOVA Torrent

Genişletmek için Tıkla!
15-02-2017 23:29 , TapOut Tarafından Yüklendi.
Kaynaklar: 17 / İndirilen: 0 / Boyut: 1.37 GB / Tamamlandı: 1,244
Torrenti İndir  Torrenti Şikayet Et Torrent Tanımı Tanıtım Videosu
IMDB Puanı: 5.4 5.4/10
Kategori: BRRip-BDRip
http://www.imdb.com/title/tt3352390/

Lanetli Mesaj Friend Request 2016 TR BDRip AC3 x264 NOVA





Facebook'ta 800 arkadaşı olan Laura, üniversitenin popüler kızlarından biridir. Laura, bir gün sınıfın dışlanmış öğrencilerinden Marina'nın Facebook arkadaşlık isteğini kabul eder. Ancak Marina bu arkadaşlığı bir saplantıya dönüştürüp sürekli Laura ile ilgili paylaşımlar yapınca aralarında bir tartışma yaşanır ve Laura, Marina'yı arkadaş listesinden çıkartır. O andan itibaren Laura'nın hayatı lanetlenir ve arkadaşları bir bir öldürülmeye başlar. Laura'nın sosyal medya hesabını bir ruh ele geçirmiştir ve silinemeyen, esrarengiz, vahşet dolu videolar paylaşmaktadır.




Format : Matroska at 2 121 kb/s
Length : 1.37 GiB for 1 s 32dk 14s 654 ms
Video #0: AVC at 1 931 kb/s
Aspect : 720 x 304 (2.368) at 23.976 fps
Audio #0 : AC-3 at 192 kb/s
Infos: 2 kanal, 48.0 kHz
Language: tr






Legion S01E01 1080p WEB DL DD5.1 H264 TrSub Torrent

Genişletmek için Tıkla!
13-02-2017 09:28 , TURKNOVA Tarafından Yüklendi.
Kaynaklar: 4 / İndirilen: 0 / Boyut: 2.72 GB / Tamamlandı: 105
Torrenti İndir  Torrenti Şikayet Et Torrent Tanımı Tanıtım Videosu
IMDB Puanı: 9.1 9.1/10
Kategori: Yabancı Dizi
Anonim Yükleyicihttp://www.imdb.com/title/tt5114356/

Legion S01E01 1080p WEB DL DD5.1 H264 TrSub





altyazı sunuma dahildir



Kendisine akıl hastası, şizofreni teşhisi konulan ve çocukluğundan beri bununla mücadele eden David Haller'i (Dan Stevens) merkezine almaktadır. Hayallerinde bir kız ile tanışır ve herşey bir anda değişir. Gördüğü ve duyduğu tüm seslerin gerçek olma ihtimali ile karşı karşıyadır.


Genişlet PHP:

General Legion S01E01 1080p WEB DL DD5.1 H264 TrSub.mkv
Format 
Matroska at 5 554 kb/s
Length 
2.72 GiB for 1 h 10 min 8 s 256 ms

Video 
#0 : AVC at 5 169 kb/s
Aspect 1920 x 1080 (1.778at 23.976 fps

Audio 
#0 : AC-3 at 384 kb/s
Infos 6 channels48.0 kHz
Language 
en


Leylekler Storks 2016 1080p 3D BluRay Half-SBS DUAL TR ENG x264 DTS NOVA Torrent

Genişletmek için Tıkla!
23-12-2016 01:19 , anilk91 Tarafından Yüklendi.
Kaynaklar: 2 / İndirilen: 2 / Boyut: 8.02 GB / Tamamlandı: 212
Torrenti İndir  Torrenti Şikayet Et Torrent Tanımı Tanıtım Videosu
IMDB Puanı: 7.0 7.0/10
Kategori: 3D
http://www.imdb.com/title/tt4624424/

Leylekler Storks 2016 1080p 3D BluRay Half-SBS DUAL TR ENG x264 DTS NOVA
Tarihin en eski devirlerinden beri yeni doğmuş bebekleri ailelerine teslim etme görevini üstlenmiş olan leylekler vardır. Bu leylekler artık geldikleri zaman çoğu kişi bebeğinin olacağına inanmaktadır. Bu nedenle de leyleklerin geleceği vakti dört gözle beklese de bu bir batıl inançtır. Artık bebek dağıtımını bırakmış ve ticari kaygılarla iş yapmaya, bir dağıtım şirketi işletmeye başlamıştır. leylekler artık el alemin çocuğu ile uğraşmayı bırakır kendi çoluk çocuğuna ekmek parası için kendi işlerini kurmuşlardır. Yani leylekler insanlara kargo götürmektedir. Şirketin en iyi çalışanların biri olan Junior adlı leylek, bir gün yanlışlıkla Bebek Yapma Makinesini çalıştırır. Bu leyleğin yapış olduğu hata yüzünden yanlışlıkla sevimli bir bebek dünyaya gelir. Bu izinsiz bebeği patronu keşfetmeden önce ona bir aile bulması gerekmektedir. Bu nedenle de o bebek leyleği kimse istemediği için yaşı çok küçük olmasına rağmen o leylek Junior ile şirkette çalışan tek insan olan Tulip, bebekle birlikte heyecan dolu bir yolculuğa çıkarlar.
Format : Matroska at 13.2 Mb/s
Length : 8.02 GiB for 1 s 26dk 57s 880 ms

Video #0 : AVC at 11.3 Mb/s
Aspect : 1920 x 1080 (1.778) at 23.976 fps

Audio #0 : AC-3 at 448 kb/s
Infos : 6 kanal, 48.0 kHz
Language : tr

Audio #1 : DTS at 1 509 kb/s
Infos : 6 kanal, 48.0 kHz
Language : en
Leylekler Storks 2016 1080p BluRay DUAL TR ENG x264 DTS NOVA Torrent

Genişletmek için Tıkla!
23-12-2016 01:19 , anilk91 Tarafından Yüklendi.
Kaynaklar: 12 / İndirilen: 0 / Boyut: 8.02 GB / Tamamlandı: 275
Torrenti İndir  Torrenti Şikayet Et Torrent Tanımı Tanıtım Videosu
IMDB Puanı: 7.0 7.0/10
Kategori: BluRay 1080p
http://www.imdb.com/title/tt4624424/

Leylekler Storks 2016 1080p BluRay DUAL TR ENG x264 DTS NOVA
Tarihin en eski devirlerinden beri yeni doğmuş bebekleri ailelerine teslim etme görevini üstlenmiş olan leylekler vardır. Bu leylekler artık geldikleri zaman çoğu kişi bebeğinin olacağına inanmaktadır. Bu nedenle de leyleklerin geleceği vakti dört gözle beklese de bu bir batıl inançtır. Artık bebek dağıtımını bırakmış ve ticari kaygılarla iş yapmaya, bir dağıtım şirketi işletmeye başlamıştır. leylekler artık el alemin çocuğu ile uğraşmayı bırakır kendi çoluk çocuğuna ekmek parası için kendi işlerini kurmuşlardır. Yani leylekler insanlara kargo götürmektedir. Şirketin en iyi çalışanların biri olan Junior adlı leylek, bir gün yanlışlıkla Bebek Yapma Makinesini çalıştırır. Bu leyleğin yapış olduğu hata yüzünden yanlışlıkla sevimli bir bebek dünyaya gelir. Bu izinsiz bebeği patronu keşfetmeden önce ona bir aile bulması gerekmektedir. Bu nedenle de o bebek leyleği kimse istemediği için yaşı çok küçük olmasına rağmen o leylek Junior ile şirkette çalışan tek insan olan Tulip, bebekle birlikte heyecan dolu bir yolculuğa çıkarlar.
Format : Matroska at 13.2 Mb/s
Length : 8.02 GiB for 1 s 26dk 57s 824 ms

Video #0 : AVC at 11.2 Mb/s
Aspect : 1920 x 800 (2.400) at 23.976 fps

Audio #0 : DTS at 1 509 kb/s
Infos : 6 kanal, 48.0 kHz
Language : en

Audio #1 : AC-3 at 448 kb/s
Infos : 6 kanal, 48.0 kHz
Language : tr

Text #0 : PGS
Language : tr
Leylekler Storks 2016 720p BluRay DUAL TR ENG x264 DTS NOVA Torrent

Genişletmek için Tıkla!
23-12-2016 01:18 , anilk91 Tarafından Yüklendi.
Kaynaklar: 7 / İndirilen: 0 / Boyut: 4.77 GB / Tamamlandı: 213
Torrenti İndir  Torrenti Şikayet Et Torrent Tanımı Tanıtım Videosu
IMDB Puanı: 7.0 7.0/10
Kategori: BluRay 720p
http://www.imdb.com/title/tt4624424/

Leylekler Storks 2016 720p BluRay DUAL TR ENG x264 DTS NOVA
Tarihin en eski devirlerinden beri yeni doğmuş bebekleri ailelerine teslim etme görevini üstlenmiş olan leylekler vardır. Bu leylekler artık geldikleri zaman çoğu kişi bebeğinin olacağına inanmaktadır. Bu nedenle de leyleklerin geleceği vakti dört gözle beklese de bu bir batıl inançtır. Artık bebek dağıtımını bırakmış ve ticari kaygılarla iş yapmaya, bir dağıtım şirketi işletmeye başlamıştır. leylekler artık el alemin çocuğu ile uğraşmayı bırakır kendi çoluk çocuğuna ekmek parası için kendi işlerini kurmuşlardır. Yani leylekler insanlara kargo götürmektedir. Şirketin en iyi çalışanların biri olan Junior adlı leylek, bir gün yanlışlıkla Bebek Yapma Makinesini çalıştırır. Bu leyleğin yapış olduğu hata yüzünden yanlışlıkla sevimli bir bebek dünyaya gelir. Bu izinsiz bebeği patronu keşfetmeden önce ona bir aile bulması gerekmektedir. Bu nedenle de o bebek leyleği kimse istemediği için yaşı çok küçük olmasına rağmen o leylek Junior ile şirkette çalışan tek insan olan Tulip, bebekle birlikte heyecan dolu bir yolculuğa çıkarlar.
Format : Matroska at 7 860 kb/s
Length : 4.77 GiB for 1 s 26dk 57s 824 ms

Video #0 : AVC at 5 899 kb/s
Aspect : 1280 x 536 (2.388) at 23.976 fps

Audio #0 : DTS at 1 509 kb/s
Infos : 6 kanal, 48.0 kHz
Language : en

Audio #1 : AC-3 at 448 kb/s
Infos : 6 kanal, 48.0 kHz
Language : tr

Text #0 : PGS
Language : tr
Leylekler Storks 2016 TR BDRip x264 AC3 NOVA Torrent

Genişletmek için Tıkla!
23-12-2016 01:18 , anilk91 Tarafından Yüklendi.
Kaynaklar: 20 / İndirilen: 2 / Boyut: 1.37 GB / Tamamlandı: 659
Torrenti İndir  Torrenti Şikayet Et Torrent Tanımı Tanıtım Videosu
IMDB Puanı: 7.0 7.0/10
Kategori: BRRip-BDRip
http://www.imdb.com/title/tt4624424/

Leylekler Storks 2016 TR BDRip x264 AC3 NOVA
Tarihin en eski devirlerinden beri yeni doğmuş bebekleri ailelerine teslim etme görevini üstlenmiş olan leylekler vardır. Bu leylekler artık geldikleri zaman çoğu kişi bebeğinin olacağına inanmaktadır. Bu nedenle de leyleklerin geleceği vakti dört gözle beklese de bu bir batıl inançtır. Artık bebek dağıtımını bırakmış ve ticari kaygılarla iş yapmaya, bir dağıtım şirketi işletmeye başlamıştır. leylekler artık el alemin çocuğu ile uğraşmayı bırakır kendi çoluk çocuğuna ekmek parası için kendi işlerini kurmuşlardır. Yani leylekler insanlara kargo götürmektedir. Şirketin en iyi çalışanların biri olan Junior adlı leylek, bir gün yanlışlıkla Bebek Yapma Makinesini çalıştırır. Bu leyleğin yapış olduğu hata yüzünden yanlışlıkla sevimli bir bebek dünyaya gelir. Bu izinsiz bebeği patronu keşfetmeden önce ona bir aile bulması gerekmektedir. Bu nedenle de o bebek leyleği kimse istemediği için yaşı çok küçük olmasına rağmen o leylek Junior ile şirkette çalışan tek insan olan Tulip, bebekle birlikte heyecan dolu bir yolculuğa çıkarlar.
*********************************************
Format : Matroska at 2 254 kb/s
Length : 1.37 GiB for 1 s 26dk 57s 824 ms
Video #0 : AVC at 2 059 kb/s
Aspect : 720 x 304 (2.368) at 23.976 fps
Audio #0 : AC-3 at 192 kb/s
Infos : 2 kanal, 48.0 kHz
Language : tr
*********************************************
Leylekler Storks 2016 TR BRRip x264 AC3 NOVA Torrent

Genişletmek için Tıkla!
20-12-2016 20:08 , isoot Tarafından Yüklendi.
Kaynaklar: 23 / İndirilen: 0 / Boyut: 1.24 GB / Tamamlandı: 3,375
Torrenti İndir  Torrenti Şikayet Et Torrent Tanımı Tanıtım Videosu
IMDB Puanı: 7.0 7.0/10
Kategori: BRRip-BDRip
http://www.imdb.com/title/tt4624424/

Leylekler Storks 2016 TR BRRip x264 AC3 NOVA

Tarihin en eski devirlerinden beri yeni doğmuş bebekleri ailelerine teslim etme görevini üstlenmiş olan leylekler vardır. Bu leylekler artık geldikleri zaman çoğu kişi bebeğinin olacağına inanmaktadır. Bu nedenle de leyleklerin geleceği vakti dört gözle beklese de bu bir batıl inançtır. Artık bebek dağıtımını bırakmış ve ticari kaygılarla iş yapmaya, bir dağıtım şirketi işletmeye başlamıştır. leylekler artık el alemin çocuğu ile uğraşmayı bırakır kendi çoluk çocuğuna ekmek parası için kendi işlerini kurmuşlardır. Yani leylekler insanlara kargo götürmektedir. Şirketin en iyi çalışanların biri olan Junior adlı leylek, bir gün yanlışlıkla Bebek Yapma Makinesini çalıştırır. Bu leyleğin yapış olduğu hata yüzünden yanlışlıkla sevimli bir bebek dünyaya gelir. Bu izinsiz bebeği patronu keşfetmeden önce ona bir aile bulması gerekmektedir. Bu nedenle de o bebek leyleği kimse istemediği için yaşı çok küçük olmasına rağmen o leylek Junior ile şirkette çalışan tek insan olan Tulip, bebekle birlikte heyecan dolu bir yolculuğa çıkarlar.
*********************************************
*********************************************
General : Leylekler Storks 2016 TR BRRip x264 AC3 NOVA
Format : Matroska at 2 047 Kbps
Length : 1.24 GiB for 1s 26dk 57s 792ms
Video #0 : AVC at 1 898 Kbps
Aspect : 720 x 336 (2.396) at 23.976 fps
Audio #0 : AC-3 at 192 Kbps
Infos : 2 kanal, 48.0 KHz
*********************************************
*********************************************
Luke Cage S01 Boxset 720p WebRip AC3 DUAL TR EN x264 NOVA Torrent

Genişletmek için Tıkla!
19-12-2016 03:42 , anilk91 Tarafından Yüklendi.
Kaynaklar: 0 / İndirilen: 1 / Boyut: 11.13 GB / Tamamlandı: 131
Torrenti İndir  Torrenti Şikayet Et Torrent Tanımı
Kategori: BOXSET

Luke Cage S01 Boxset 720p WebRip AC3 DUAL TR EN x264 NOVA



Hapishanede geçirdiği günlerde üzerinde uygulanan deneyler sonucu Luke Cage; her türlü darbeye ve sıcaklığa karşı dayanıklı bir deri, iyileşme yeteneği ile süper insan gücüne sahip bir karakterdir.
*********************************************
Format : Matroska at 2 219 kb/s
Length : 872 MiB for 54dk 56s 864 ms

Video #0 : AVC at 1 480 kb/s
Aspect : 1280 x 720 (1.778) at 23.976 fps

Audio #0 : AC-3 at 384 kb/s
Infos : 6 kanal, 48.0 kHz
Language : tr

Audio #1 : AC-3 at 384 kb/s
Infos : 6 kanal, 48.0 kHz
Language : en
*********************************************
Leylekler Storks 2016 1080p 3D BluRay Half-SBS TRSub x264 SPRiNTER Torrent

Genişletmek için Tıkla!
15-12-2016 11:45 , dadashmrt Tarafından Yüklendi.
Kaynaklar: 1 / İndirilen: 0 / Boyut: 4.37 GB / Tamamlandı: 75
Torrenti İndir  Torrenti Şikayet Et Torrent Tanımı Tanıtım Videosu
IMDB Puanı: 7.0 7.0/10
Kategori: 3D
http://www.imdb.com/title/tt4624424/

Leylekler Storks 2016 1080p 3D BluRay Half-SBS TRSub x264 SPRiNTER






Altyazı sunuma dahildir.


Tarihin en eski devirlerinden beri yeni doğmuş bebekleri ailelerine teslim etme görevini üstlenmiş olan leylekler vardır. Bu leylekler artık geldikleri zaman çoğu kişi bebeğinin olacağına inanmaktadır. Bu nedenle de leyleklerin geleceği vakti dört gözle beklese de bu bir
batıl inançtır. Artık bebek dağıtımını bırakmış ve ticari kaygılarla iş yapmaya, bir dağıtım şirketi işletmeye başlamıştır. leylekler artık el alemin çocuğu ile uğraşmayı bırakır kendi çoluk çocuğuna ekmek parası için kendi işlerini kurmuşlardır. Yani leylekler insanlara kargo
götürmektedir. Şirketin en iyi çalışanların biri olan Junior adlı leylek, bir gün yanlışlıkla Bebek Yapma Makinesini çalıştırır. Bu leyleğin yapış olduğu hata yüzünden yanlışlıkla sevimli bir bebek dünyaya gelir. Bu izinsiz bebeği patronu keşfetmeden önce ona bir aile bulması gerekmektedir. Bu nedenle de o bebek leyleği kimse istemediği için yaşı çok küçük olmasına rağmen o leylek Junior ile şirkette çalışan tek insan olan Tulip, bebekle birlikte heyecan dolu bir yolculuğa çıkarlar.


Genişlet PHP:

Tam isim :Leylekler Storks 2016 3D HSBS 1080p BluRay x264 SPRiNTER.mkv
Biçim 
:Matroska
Biçim sürümü 
:Version 4 Version 2
Dosya boyutu 
:4.37 GiB
Süre 
:1 s 26dk
Kapsamlı bit oranı 
:7 198 kb/s
Biçim ayarları
ReFrames :5 kare
Bit oranı 
:5 688 kb/s
Genişlik 
:1 920 piksel
Yükseklik 
:808 piksel
Kare hızı 
:23.976 kare/s
Bit yoğunluğu 
:8 bit
Ses
Biçim 
:DTS
Bit oranı 
:1 509 kb/s
Kanal 
:6 kanal
Örnekleme oranı 
:48.0 kHz
Kare hızı 
:93.750 kare/(512 spf)
Bit yoğunluğu :24 bit
Akış boyutu 
:939 MiB (21%)
Dil :İngilizce
Metin
Biçim 
:UTF-8
Dil 
:Türkçe





Lalelide Bir Azize 1999 DVDRip MP3 TR XviD Torrent

Genişletmek için Tıkla!
24-11-2016 21:12 , baykal55 Tarafından Yüklendi.
Kaynaklar: 7 / İndirilen: 0 / Boyut: 700.43 MB / Tamamlandı: 126
Torrenti İndir  Torrenti Şikayet Et Torrent Tanımı
Kategori: DVDRip

Lalelide Bir Azize 1999 DVDRip MP3 TR XviD


1998 yapımı “Gemide” filminin ardından, bu kez Kudret Sabancı yönetmenliğinde çekilen film, bir önceki filmin açıklayıcısı niteliğindedir. Gemide filminde, hem karakterlerin hem seyircilerin kafasına takılan sorular, Laleli’deki mafya, mafya olmaya çalışan bir çete ve olayların ortasında duran kadının hikayesi üzerinden aydınlatılır. Çete lideri Aziz (Güven Kıraç), bir müşterisi için kadın arayışına girer. Ama, gemi nasıl bir memleket gibiyse, karada da işlerin belli bir düzende ilerlemesi gerekir, oysa işler Aziz’in beklediği gibi yürümeyecektir. Gemiye getirilen kadının hikayesi ve olayların sebebi bu filmde açıklanır. Film, Gemide’de gördüklerimizin öncesini açıklasa da, kurgu ve oyunculuklar bakımından oldukça farklıdır. Işık kullanımı, filmin hanesine olumsuz not olarak düşülse de, Gemide filminden sonra izlenip, keşfedilmesi farklı bir deneysel çalışma izlemek açısından kayda değer olacaktır.



*********************************************
Format : AVI
Format/Info : Audio Video Interleave
FileSize/String : 700 MiB
Duration/String : 1 s 21dk
OverallBitRate_Mode/String : Değişken
OverallBitRate/String : 1 204 kb/s
Encoded_Application/String : VirtualDubMod 1.5.4.1 (build 2178/release)
Encoded_Library/String : VirtualDubMod build 2178/release
Görüntü
ID/String : 0
Format : MPEG-4 Visual
Format_Settings_BVOP/String : 1
Format_Settings_QPel/String : Hayır
Format_Settings_GMC/String : Sapma noktası yok
Format_Settings_Matrix/String : Default (H.263)
MuxingMode : Paketlenmiş bit akışı
CodecID : DX50
CodecID/Hint : DivX 5
Duration/String : 1 s 21dk
BitRate/String : 1 070 kb/s
BitRate_Nominal/String : 6 951 kb/s
Width/String : 608 piksel
Height/String : 400 piksel
DisplayAspectRatio/String : 3:2
FrameRate/String : 25.000 kare/s
ColorSpace : YUV
ChromaSubsampling/String : 4:2:0
BitDepth/String : 8 bit
ScanType/String : Aşamalı
Compression_Mode/String : Kayıplı
Bits-(Pixel*Frame) : 0.176
StreamSize/String : 623 MiB (89%)
Encoded_Library/String : DivX 5.1.1 (Maupiti) (UTC 2003-11-19)
Ses
ID/String : 1
Format : MPEG Audio
Format_Version : Version 1
Format_Profile : Layer 3
Format_Settings_Mode : Joint stereo
Format_Settings_ModeExtension : MS Stereo
CodecID : 55
CodecID/Hint : MP3
Duration/String : 1 s 21dk
BitRate_Mode/String : Değişken
BitRate/String : 121 kb/s
BitRate_Nominal/String : 128 kb/s
Channel(s)/String : 2 kanal
SamplingRate/String : 48.0 kHz
Compression_Mode/String : Kayıplı
StreamSize/String : 70.3 MiB (10%)
Alignment/String : Boşluklarda sıraya dizilmiş
Interleave_Duration/String : 24 ms (0.60görüntü karesi)
Interleave_Preload/String : 533 ms
Encoded_Library/String : LAME3.90.
Encoded_Library_Settings : -m j -V 4 -q 2 -lowpass 17.6 --abr 128
Language/String : Unknown language

*********************************************




Lucifer S01 1080p WEB-DL AC3 DUAL TR ENG H264 NOVA Torrent

Genişletmek için Tıkla!
12-11-2016 20:34 , DisGuard Tarafından Yüklendi.
Kaynaklar: 0 / İndirilen: 1 / Boyut: 22.3 GB / Tamamlandı: 37
Torrenti İndir  Torrenti Şikayet Et Torrent Tanımı Tanıtım Videosu
IMDB Puanı: 8.3 8.3/10
Kategori: BOXSET
http://www.imdb.com/title/tt4052886/

Lucifer S01 1080p WEB-DL AC3 DUAL TR ENG H264 NOVA


Ses ve Alt Yazı sunuma dahildir.
“Cehennem Lordu” Lucifer Morningstar; Los Angeles Polis Departmanı için suçluları yakalamaktadır. Ancak büyük bir sırrı vardır: Bu çekici adam, aslında yeryüzüne düşmüş bir melektir! Neil Gaiman tarafından yaratılan Lucifer, Sandman isimli serinin yardımcı karakterlerinden biriydi ve daha sonra kendi çizgi romanına kavuştu. Çizgi romanlarda, karakter Lux isimli bir barı işletiyor.
*********************************************
*********************************************
General : Lucifer S01E01 1080p WEB-DL AC3 DUAL TR ENG H264 NOVA.mkv
Format : Matroska at 5 677 kb/s
Length : 1.78 GiB for 44dk 55s 456 ms
Video #0 : AVC at 5 097 kb/s
Aspect : 1916 x 1076 (1.781) at 23.976 fps
Audio #0 : AC-3 at 192 kb/s
Infos : 2 kanal, 48.0 kHz
Language : tr
Audio #1 : AC-3 at 384 kb/s
Infos : 6 kanal, 48.0 kHz
Language : en
Text #0 : UTF-8
Language : en
Text #1 : UTF-8
Language : tr
*********************************************
*********************************************
Lights Out 2016 HDRip XviD AC3 TrSub - EVO Torrent

Genişletmek için Tıkla!
12-10-2016 08:57 , TURKNOVA Tarafından Yüklendi.
Kaynaklar: 0 / İndirilen: 0 / Boyut: 1.39 GB / Tamamlandı: 55
Torrenti İndir  Torrenti Şikayet Et Torrent Tanımı Tanıtım Videosu
IMDB Puanı: 6.6 6.6/10
Kategori: Web-DL
Anonim Yükleyicihttp://www.imdb.com/title/tt4786282/

Lights Out 2016 HDRip XviD AC3 TrSub - EVO




türkçe altyazı sunuma dahildir


David F. Sandberg'in 2013 yılı imzalı kısa filminden bu kez uzun metraj olarak beyazperdeye uyarladığı
film ailesine dadanan bir doğaüstü varlığın gizemini çözmeye çalışan Rebecca'yı temel alıyor. Rebecca küçük
kardeşini kurtarabilmek için bu gizemli varlığı yok etmenin bir yolunu bulmaya çalışıyor...


Genişlet PHP:

Release NameLights.Out.2016.HDRip.XviD.AC3-EVO

Size
1.4 GiB

Video
AVi 720×304 2080 Kbps

Audio
English AC3 384 Kbps

Runtime
1h20m33sec

Subtitles
TURKÇE







London Has Fallen Kod Adı Londra 2016 1080p BluRay DTS DUAL TR ENG x264 NOVA Torrent

Genişletmek için Tıkla!
05-09-2016 14:01 , TURKNOVA Tarafından Yüklendi.
Kaynaklar: 8 / İndirilen: 1 / Boyut: 8.74 GB / Tamamlandı: 501
Torrenti İndir  Torrenti Şikayet Et Torrent Tanımı Tanıtım Videosu
IMDB Puanı: 5.9 5.9/10
Kategori: BluRay 1080p
Anonim Yükleyicihttp://www.imdb.com/title/tt3300542/

London Has Fallen Kod Adı Londra 2016 1080p BluRay DTS DUAL TR ENG x264 NOVA


İngiltere Başbakanının zamansız ölümü sonrasında, Teşkilat Başkanı Lynne Jacobs Londra’da düzenlenecek cenaze töreninde Banning’i Başkan Asher’ın (Aaron Eckhart) yakın koruması olarak görevlendirir. Dünyanın en güçlü liderlerinin katılacağı bu cenaze töreni, gelmiş geçmiş en yüksek güvenlik tedbirlerinin alındaığı bir organizasyona dönüşür ama liderlerin gelmeye başlamasından kısa bir süre sonra, Londra’da bombalar ardı ardına patlamaya başlar. Londra polisi ve silahlı kuvvetleri açığa çıkınca Banning, hem Başkan Asher’ın can güvenliğinden sorumludur hem de bu saldırıların arkasındaki isimleri de etkisiz hale getirmek zorundadır.Babak Najafi'nin yeni filmi Kod Adı : Londra, serinin ilk filmi Kod Adı: Olympus'ta olduğu gibi tekrar başrolüne Gerard Butler'ı ve Aaron Eckhart'ı yerleştiriyor. Aksiyon dolu filmde ayrıca Morgan Freeman, Angela Bassett, Robert Forster, Jackie Earle Haley, Melissa Leo, Radha Mitchell, Sean O’Bryan, Charlotte Riley yer alıyor.


*********************************************
Format : Matroska at 12.7 Mbps
Length : 8.74 GiB for 1s 38dk 41s 920ms
Video #0 : AVC at 10.7 Mbps
Aspect : 1920 x 804 (2.388) at 23.976 fps
Audio #0 : AC-3 at 224 Kbps
Infos : 2 kanal, 48.0 KHz
Language : tr
Audio #1 : DTS at 1 509 Kbps
Infos : 6 kanal, 48.0 KHz
Language : en
*********************************************

*********************************************
London Has Fallen Kod Adı Londra 2016 720p BluRay DTS DUAL TR ENG x264 NOVA Torrent

Genişletmek için Tıkla!
05-09-2016 14:00 , TURKNOVA Tarafından Yüklendi.
Kaynaklar: 2 / İndirilen: 0 / Boyut: 5.02 GB / Tamamlandı: 338
Torrenti İndir  Torrenti Şikayet Et Torrent Tanımı Tanıtım Videosu
IMDB Puanı: 5.9 5.9/10
Kategori: BluRay 720p
Anonim Yükleyicihttp://www.imdb.com/title/tt3300542/

London Has Fallen Kod Adı Londra 2016 720p BluRay DTS DUAL TR ENG x264 NOVA

İngiltere Başbakanının zamansız ölümü sonrasında, Teşkilat Başkanı Lynne Jacobs Londra’da düzenlenecek cenaze töreninde Banning’i Başkan Asher’ın (Aaron Eckhart) yakın koruması olarak görevlendirir. Dünyanın en güçlü liderlerinin katılacağı bu cenaze töreni, gelmiş geçmiş en yüksek güvenlik tedbirlerinin alındaığı bir organizasyona dönüşür ama liderlerin gelmeye başlamasından kısa bir süre sonra, Londra’da bombalar ardı ardına patlamaya başlar. Londra polisi ve silahlı kuvvetleri açığa çıkınca Banning, hem Başkan Asher’ın can güvenliğinden sorumludur hem de bu saldırıların arkasındaki isimleri de etkisiz hale getirmek zorundadır.Babak Najafi'nin yeni filmi Kod Adı : Londra, serinin ilk filmi Kod Adı: Olympus'ta olduğu gibi tekrar başrolüne Gerard Butler'ı ve Aaron Eckhart'ı yerleştiriyor. Aksiyon dolu filmde ayrıca Morgan Freeman, Angela Bassett, Robert Forster, Jackie Earle Haley, Melissa Leo, Radha Mitchell, Sean O’Bryan, Charlotte Riley yer alıyor.


*********************************************
Format : Matroska at 7 287 Kbps
Length : 5.02 GiB for 1s 38dk 41s 920ms
Video #0 : AVC at 5 409 Kbps
Aspect : 1280 x 536 (2.388) at 23.976 fps
Audio #0 : AC-3 at 224 Kbps
Infos : 2 kanal, 48.0 KHz
Language : tr
Audio #1 : DTS at 1 509 Kbps
Infos : 6 kanal, 48.0 KHz
Language : en
*********************************************

*********************************************
London Has Fallen Kod Adı Londra 2016 TR BDRip x264 AC3 NOVA Torrent

Genişletmek için Tıkla!
05-09-2016 14:00 , TURKNOVA Tarafından Yüklendi.
Kaynaklar: 12 / İndirilen: 0 / Boyut: 1.37 GB / Tamamlandı: 1,022
Torrenti İndir  Torrenti Şikayet Et Torrent Tanımı Tanıtım Videosu
IMDB Puanı: 5.9 5.9/10
Kategori: BRRip-BDRip
Anonim Yükleyicihttp://www.imdb.com/title/tt3300542/

London Has Fallen Kod Adı Londra 2016 TR BDRip x264 AC3 NOVA


İngiltere Başbakanının zamansız ölümü sonrasında, Teşkilat Başkanı Lynne Jacobs Londra’da düzenlenecek cenaze töreninde Banning’i Başkan Asher’ın (Aaron Eckhart) yakın koruması olarak görevlendirir. Dünyanın en güçlü liderlerinin katılacağı bu cenaze töreni, gelmiş geçmiş en yüksek güvenlik tedbirlerinin alındaığı bir organizasyona dönüşür ama liderlerin gelmeye başlamasından kısa bir süre sonra, Londra’da bombalar ardı ardına patlamaya başlar. Londra polisi ve silahlı kuvvetleri açığa çıkınca Banning, hem Başkan Asher’ın can güvenliğinden sorumludur hem de bu saldırıların arkasındaki isimleri de etkisiz hale getirmek zorundadır.Babak Najafi'nin yeni filmi Kod Adı : Londra, serinin ilk filmi Kod Adı: Olympus'ta olduğu gibi tekrar başrolüne Gerard Butler'ı ve Aaron Eckhart'ı yerleştiriyor. Aksiyon dolu filmde ayrıca Morgan Freeman, Angela Bassett, Robert Forster, Jackie Earle Haley, Melissa Leo, Radha Mitchell, Sean O’Bryan, Charlotte Riley yer alıyor.


*********************************************
Format : Matroska at 1 981 Kbps
Length : 1.37 GiB for 1s 38dk 41s 916ms
Video #0 : AVC at 1 796 Kbps
Aspect : 720 x 304 (2.368) at 23.976 fps
Audio #0 : AC-3 at 192 Kbps
Infos : 2 kanal, 48.0 KHz
Language : tr
*********************************************

*********************************************
LEGO Friends Girlz 4 Life 2016 TR DVDrip x264 NOVA Torrent

Genişletmek için Tıkla!
11-07-2016 17:27 , isoot Tarafından Yüklendi.
Kaynaklar: 1 / İndirilen: 1 / Boyut: 999.75 MB / Tamamlandı: 185
Torrenti İndir  Torrenti Şikayet Et Torrent Tanımı Tanıtım Videosu
IMDB Puanı: 6.5 6.5/10
Kategori: DVDRip
http://www.imdb.com/title/tt5424368/

LEGO Friends Girlz 4 Life 2016 TR DVDrip x264 NOVA


Lego arkadaşlarının ilk filmi! Kızların arkadaşlıklarını bir test beklemektedir. Livi, Heartlake City'ye geldiği zaman bu test başlayacaktır. Livi'nin menajeri kızların "Girlz" şarkısını çalar. Kızlar şarkılarını geri almak için güzel bir plan yapmalıdır. şarkı hakkında Livi'nin bilmediği gerçekler vardır. Kızlar bunları Livi'ye söylemeye çalışır. Fakat işler bekledikleri gibi ilerlemez. Ünlü olmanın herşeye sahip olmak anlamına gelmediğini zamanla öğrenirler. Hayattaki en önemli şeyin arkadaşlık olduğunu biraz geçte olsa anlayacaklardır.
Genişlet PHP:

General           LEGO Friends Girlz 4 Life 2016 TR DVDrip x264 NOVA
Format            
Matroska at 1 753 Kbps
Length            
1 000 MiB for 1s 19dk 44s 762ms

Video 
#0          : AVC at 1 561 Kbps
Aspect            720 x 400 (1.800at 23.976 fps

Audio 
#0          : AC-3 at 192 Kbps
Infos             2 kanal44.1 KHz
Language          
tr

Linux Slax İşletim Sistemi Torrent

Genişletmek için Tıkla!
03-07-2016 01:41 , TURKNOVA Tarafından Yüklendi.
Kaynaklar: 0 / İndirilen: 0 / Boyut: 891.2 MB / Tamamlandı: 109
Torrenti İndir  Torrenti Şikayet Et Torrent Tanımı
Kategori: İşletim Sistemi
Anonim Yükleyici

Slax Linux 7.0.8







CD'ye yazmak için iso dosyasını, USB bellek için ise zip dosyasını indirmeniz gerekir. Türkçe olarak hazırlanmış kalıplar da mevcut. Şu an 7.0.8 sürümünde ve 7.0.9 beta test edilmekte.

Sistem gereksinimlerine gelince, KDE 4.10 ortamı ile geldiği için eskiye kıyasla daha yüksek RAM'e ihtiyaç duyuyor. 256 MB RAM çalıştırmak için yeterli ancak rahat bir kullanım için 512 MB olmalı. i486 yani 1990'dan sonra üretilmiş bir işlemci ile 32 bitlik kalıbı sorunsuz kullanabilirsiniz.



USB'den çalıştırmak için:

Windows'ta zip paketin içeriğini "slax" klasörü olarak USB belleğinize çıkardıktan sonra slax/boot klasöründeki bootinst.bat dosyasını çalıştırmanız yeterli.

Linux'ta ise aynı şekilde slax klasörünü çıkardıktan sonra slax/boot/bootinst.sh dosyasını yönetici hakları ile çalıştırmak gerekiyor. Terminali o dizinde açıp

sudo sh bootinst.sh

diyerek yapabilirsiniz. Dağıtımın slax klasörü altında durması USB belleği başka dosyalar için kullanırken düzenli bir görünümde olmasını sağlamış. Ola ki yanlışlıkla boot ayarlamasını bozdunuz, tek yapmanız gereken bootinst dosyasını tekrar çalıştırmak.

ÇALIŞTIRMA

Slax Linux, CD veya USB bellek üzerinden kullanılmak üzere hazırlandığı için normal yollarla kurulumu mümkün değil. Sistemin açılışında sunduğu seçenekler de bize canlı çalışmak üzere tasarlandığını gösteriyor:


Sırasıyla:

Slax'i Çalıştır: Açılışı yapan seçenek.

Kalıcı değişiklikler: USB bellek ile çalıştırdığınızda yaptığınız değişikliklerin normal sistem gibi kaydedimesini sağlıyor. Sistemi her yeniden başlatışınızda en son bıraktığınız haliyle karşılaması çok güzel. Daha güzeli ise bunun seçiminin kullanıcıya bırakılması.

Grafik arabirimi: Mesela sunucu amacıyla kullanmak isteyenler daha yüksek performans alabilsin diye grafik değil metin arabirim ile çalıştırıyor.

RAM'e kopyala: Sanal RAM diske bütün dosyaları kopyalayıp başladığı ortamdan bağımsız olarak çalışıyor.

PXE sunucu rolü al: Ağ üzerindeki diğer PXE destekli bilgisayarlarda açılış yapabilme olanağı.

Herhangi bir değişiklik yapmadan çalıştıralım. Masaüstü ve klasik kick-off menü:


Gerçek makinede ekran çözünürlüğüm olan 1280x800'de, sanal makinede 1024x768 çözünürlük ile açıldı. Ayrıca 800x600 ve artık karşımıza pek çıkmayan 640x480 640x350 gibi çözünürlüklere de destek sağlıyor.

Alt panel gereğinden büyük olmamış mı? Linux dünyam. İsterseniz panelde sağ tık, panel seçenekleri, panel ayarlarında yükseklik düğmesini birazcık aşağı çekerek küçültebilirsiniz.

Türkçe kalıbı indirdiğim için Türkçe Q klavye ve oranında Türkçe desteğiyle beni karşıladı. Masaüstünde çeşitli teknik ayrıntıların da yer aldığı kılavuz tamamen İngilizce.

UYGULAMALAR

Yazılım merkezi henüz gelişim aşamasında olduğu için tam olarak çalışmıyor. Uygulamalara modül deniliyor ve modüllere dağıtımın sitesinde ulaşabilirsiniz.


Kendisinin önerdiği uygun mimarideki .sb uzantılı dosyaları bilgisayarınıza indirip USB belleğinizde slax/modules klasörüne kopyalarsanız Slax'in bir sonraki açılışında o modül otomatik yüklenmiş halde oluyor. Sistemi yeniden başlatmanın mesela oyun modülleri için dahi zorunlu olması biraz garip olmuş.

Mesela benim dizüstü bilgisayarımın intel kablosuz ağ kartını tanımadığı için bu linkten

iwlwifi modülünü indirip slax/modules dizinine attım. Sistemi yeniden başlattığımda


şifremi yazıp ağa hemen bağlandım. Eğer sizin de tanımadığı bir cihaz olursa intel kablosuz ağ kartı için için iwlwifi, diğer cihazlar için kernel-firmware modülünü deneyebilirsiniz. Tavsiyem, eğer birkaç farklı bilgisayarda kullanmayı düşünüyorsanız bu iki firmware'i de bulundurun.

Kablosuz ağa otomatik bağlanma etkin olmasına karşın sistemi her yeniden başlatışımda aynı ağa tekrar bağlanmadı ve benim bağlanma talebimi de reddetti. Ağı listemden silip tekrar şifresini yazıp bağlan dediğimde bağlanabildim.

Sistemde kurulu olarak gelen Firefox düşük çözünürlüklü ekranlarda daha rahat kullanım için FXChrome teması ile Chrome tarzında bir tasarımda:


Firefox, Omnibar eklentisi ve küçük birkaç değişiklik daha içeriyor. Eski bir flash player kurulu. Deneme amacıyla YouTube'da video açtığımda Firefox'ta ciddi donmalar yaşadım.

Sürekli olarak root haklarına sahip olarak kullanılan sistem Linux kernel 3.8.2 ve KDE 4.10.1 ile gerçek bir KDE tecrübesi sunmasa da efektler ve temel araçlar yönünden son derece kullanışlı durumda. Herhangi bir ofis aracı bulunmasa da Gwenview ve Kolurpaint hazır geldiği için yazıya Slax'te devam edebiliyorum.

KDE sistem ayarları da etkin bir şekilde hazır:


ÖZETLE

Slax genel olarak oldukça kaliteli ve performanslı bir izlenim bıraksa da yer yer yaşadığım kasılmalar donmalar rahatsız edici. Sistem menüsünün açılması için defalarca öylece bekledim, Dolphin'in cevap vermediği zamanlar oldu. Firefox'u sürekli olarak kullandığım için en çok sorunu Firefox ile yaşadım. Sürekli olarak çok sık ve kısa donmalar oldu.

Kıyaslama amacıyla, Puppy Linux'tan çok çok daha modern ve etkili bir duruşu olsa da daha düşük performans sunduğuna eminim.

Sizin bilgisayarınızda da performans düşüklüğüne ve donmalara sebep olup olmayacağını bilmiyorum ancak düşük sistem gereksinimli ve USB'den çalışan çok şık bir dağıtım arıyorsanız Slax Linux tam size göre.



Leman Haziran 2016.pdf Torrent

Genişletmek için Tıkla!
14-06-2016 02:49 , isoot Tarafından Yüklendi.
Kaynaklar: 4 / İndirilen: 0 / Boyut: 8.22 MB / Tamamlandı: 767
Torrenti İndir  Torrenti Şikayet Et Torrent Tanımı
Kategori: E-Book

Leman Haziran 2016


Leman Haziran 2016 Pdf E-Dergi
London Has Fallen 2016 Web-DL 1080p x264 DD5.1 Torrent

Genişletmek için Tıkla!
24-05-2016 04:35 , guiding Tarafından Yüklendi.
Kaynaklar: 0 / İndirilen: 0 / Boyut: 2.47 GB / Tamamlandı: 101
Torrenti İndir  Torrenti Şikayet Et Torrent Tanımı Tanıtım Videosu
IMDB Puanı: 6.0 6.0/10
Kategori: Web-DL
http://www.imdb.com/title/tt3300542/

London Has Fallen 2016 Web-DL 1080p x264 DD5.1



Türkçe altyazı sunuma dahildir.

İngiltere başbakanı gizemli bir şekilde hayatını kaybedince, bütün batı dünyası liderleri cenaze törenine katılmak üzere Londra'nın yolunu tutarlar. Fakat dünyanın bu en fazla korunan yeri, bir anda liderler için ölümcül bir tuzağa dönüşür. Amerika başkanı, onun zorlu gizli servis başı ve hiç kimseye güvenmeyen bir İngiliz MI-6 ajanı bu ölümlerin durdurulacağına dair umudu olmayan insanların, yegane umutları olacaklardır.








Genişlet PHP:

General

Format 
Matroska

File size 
2.46 GiB

Duration 
1h 38mn

Overall bit rate 
3 583 Kbps

Encoded date 
UTC 2016-05-23 04:01:03

Video

ID 
1

Format 
AVC

Bit rate 
3 200 Kbps

Width 
1 920 pixels

Height 
804 pixels

Audio

ID 
2

Format 
AC-3

Duration 
1h 38mn

Bit rate mode 
Constant

Bit rate 
384 Kbps

Channel
(s) : 6 channels



Leblebi Tozu 2016 1080p Web-DL x265 HEVC AC3 NOVA Torrent

Genişletmek için Tıkla!
22-05-2016 13:04 , TURKNOVA Tarafından Yüklendi.
Kaynaklar: 1 / İndirilen: 0 / Boyut: 2.83 GB / Tamamlandı: 394
Torrenti İndir  Torrenti Şikayet Et Torrent Tanımı Tanıtım Videosu
IMDB Puanı: 4.1 4.1/10
Kategori: Web-DL
Anonim Yükleyicihttp://www.imdb.com/title/tt5522224/

Leblebi Tozu 2016 1080p Web-DL x265 HEVC AC3 NOVA
x265 Kodecli Kendi Ripimizdir.Yorumlarınızı belirtirseniz seviniriz.


Birbirini çok seven, çok yakın 3 arkadaş, Çorum'da düzenlenen 'Medeniyetler Canlanıyor' etkinliğinde Çorum'un en çok bilinen tarihi eserlerini çalıp zengin olmak için bir plan yaparlar. Ama hesapları tutmayınca başlarına bir sürü olay gelir.

Format : Matroska at 4 258 Kbps
Length : 2.83 GiB for 1s 35dk 16s 289ms
Video #0 : HEVC at 3 917 Kbps
Aspect : 1920 x 1080 (1.778) at 25.000 fps
Audio #0 : AC-3 at 256 Kbps
Infos : 2 kanal, 44.1 KHz
Language : tr


Leblebi Tozu 2016 1080p Web-DL x264 AC3 NOVA Torrent

Genişletmek için Tıkla!
22-05-2016 13:04 , TURKNOVA Tarafından Yüklendi.
Kaynaklar: 1 / İndirilen: 0 / Boyut: 2.81 GB / Tamamlandı: 163
Torrenti İndir  Torrenti Şikayet Et Torrent Tanımı Tanıtım Videosu
IMDB Puanı: 4.1 4.1/10
Kategori: Web-DL
Anonim Yükleyicihttp://www.imdb.com/title/tt5522224/

Leblebi Tozu 2016 1080p Web-DL x264 AC3 NOVA


Birbirini çok seven, çok yakın 3 arkadaş, Çorum'da düzenlenen 'Medeniyetler Canlanıyor' etkinliğinde Çorum'un en çok bilinen tarihi eserlerini çalıp zengin olmak için bir plan yaparlar. Ama hesapları tutmayınca başlarına bir sürü olay gelir.

Format : Matroska at 4 227 Kbps
Length : 2.81 GiB for 1s 35dk 16s 289ms
Video #0 : AVC at 4 000 Kbps
Aspect : 1920 x 1080 (1.778) at 25.000 fps
Audio #0 : AC-3 at 256 Kbps
Infos : 2 kanal, 44.1 KHz


Liverpool-Sevilla Final Macı 18.05.2016 1080p HDTV NOVA Torrent

Genişletmek için Tıkla!
19-05-2016 16:18 , ekolione Tarafından Yüklendi.
Kaynaklar: 0 / İndirilen: 0 / Boyut: 2.62 GB / Tamamlandı: 33
Torrenti İndir  Torrenti Şikayet Et Torrent Tanımı
Kategori: HD TV

Liverpool-Sevilla Final Macı 18.05.2016 1080p HDTV NOVA

thumbsupBu maç kaçmaz !!!thumbsup
*********************************************
General : Liverpool-Sevilla Final Macı 18.05.2016 1080p HDTV NOVA.mkv
Format : Matroska at 3 195 Kbps
Length : 2.62 GiB for 1s 57dk 15s 750ms

Video #0 : AVC at 3 000 Kbps
Aspect : 1920 x 1080 (1.778) at 25.000 fps

Audio #0 : AC-3 at 192 Kbps
Infos : 2 kanal, 44.1 KHz


*********************************************
Leblebi Tozu 2016 (Yerli Film) WEB-DL XviD NOVA Torrent

Genişletmek için Tıkla!
15-05-2016 14:11 , Canbela Tarafından Yüklendi.
Kaynaklar: 4 / İndirilen: 0 / Boyut: 976.39 MB / Tamamlandı: 1,149
Torrenti İndir  Torrenti Şikayet Et Torrent Tanımı
Kategori: Web-DL

Leblebi Tozu 2016 (Yerli Film) WEB-DL XviD NOVA
Birbirini çok seven, çok yakın 3 arkadaş, Çorum'da düzenlenen 'Medeniyetler Canlanıyor' etkinliğinde Çorum'un en çok bilinen tarihi eserlerini çalıp zengin olmak için bir plan yaparlar. Ama hesapları tutmayınca başlarına bir sürü olay gelir.
[/php]
Format : AVI at 1 433 Kbps
Length : 976 MiB for 1s 35dk 16s 271ms
Video #0 : MPEG-4 Visual at 1 293 Kbps
Aspect : 720 x 304 (1.778) at 25.000 fps
Audio #0 : MPEG Audio at 128 Kbps
Infos : 2 kanal, 44.1 KHz
[/php]
London Has Fallen 2016 TRLine HDRip XviD AC3 NOVA Torrent

Genişletmek için Tıkla!
14-05-2016 12:37 , Canbela Tarafından Yüklendi.
Kaynaklar: 3 / İndirilen: 0 / Boyut: 1.19 GB / Tamamlandı: 628
Torrenti İndir  Torrenti Şikayet Et Torrent Tanımı
Kategori: BRRip-BDRip

London Has Fallen 2016 TRLine HDRip XviD AC3 NOVA
Büyük Britanya başbakanı, hiç beklenmedik bir zamanda ve sebebi anlaşılamaz bir şekilde hayatını kaybettiğinde bütün dünya liderleri cenaze töreni Londra’ya gelirler. Alınan görülmemiş derecede yüksek düzeyde güvenlik önlemlerine rağmen teröristler saldırılar düzenleyerek birçok vatandaşla birlikte 5 lideri öldürmeyi başarırlar. Saldırıların arkasında FBI’ın aradığı terörist Aamir Barkawi (Alon Aboutboul) vardır ve niyeti ABD Başkanı Benjamin Asher’ı (Aaron Eckhart) öldürmektir. Aksi takdirde dünyanın her yanında büyük bir kaosun başlayacağı tehdidinde bulunur. Başkanın yakın koruması Mike Banning (Gerard Butler), her ne pahasına olursa olsun başkanın teröristlerin eline geçmesini engellemek zorundadır.
[/php]
Format : AVI at 1 844 Kbps
Length : 1.19 GiB for 1s 32dk 12s 292ms
Video #0 : MPEG-4 Visual at 1 643 Kbps
Aspect : 720 x 304 (2.368) at 24.000 fps
Audio #0 : AC-3 at 192 Kbps
Infos : 2 kanal, 48.0 KHz
[/php]
London Has Fallen 2016 HDRip XviD AC3 TrSub EVO Torrent

Genişletmek için Tıkla!
14-05-2016 10:51 , TURKNOVA Tarafından Yüklendi.
Kaynaklar: 1 / İndirilen: 0 / Boyut: 1.39 GB / Tamamlandı: 166
Torrenti İndir  Torrenti Şikayet Et Torrent Tanımı Tanıtım Videosu
IMDB Puanı: 6.1 6.1/10
Kategori: Web-DL
Anonim Yükleyicihttp://www.imdb.com/title/tt3300542/

London Has Fallen 2016 HDRip XviD AC3 TrSub EVO







Büyük Britanya Başbakanı, hiç beklenmedik bir zamanda ve sebebi anlaşılamaz bir şekilde hayatını kaybettiğinde bütün dünya liderleri cenaze töreni için Londra'ya gelirler. Alınan görülmemiş derecede yüksek düzeyde güvenlik önlemlerine rağmen teröristler saldırılar düzenleyerek birçok vatandaşla birlikte 5 lideri öldürmeyi başarırlar. Saldırıların arkasında FBI'ın aradığı terörist Aamir Barkawi (Alon Aboutboul) vardır ve niyeti ABD Başkanı Benjamin Asher'ı (Aaron Eckhart) öldürmektir. Aksi takdirde dünyanın her yanında büyük bir kaosun başlayacağı tehdidinde bulunur. Başkanın yakın koruması Mike Banning (Gerard Butler), her ne pahasına olursa olsun başkanın teröristlerin eline geçmesini engellemek zorundadır. (sinemalar)







Genişlet Kod:
Release Name: London Has Fallen 2016 HDRip XviD AC3 TrSub EVO
Size: 1.38 GB
Video: AVi | 720×304 | 1819 Kbps
Audio: English | AC3 | 192 kbps
Runtime: 1h 38mn
Subtitles: Turkish





LEGO Scooby Doo Haunted Hollywood 2016 TR BRRip XviD AC3 NOVA Torrent

Genişletmek için Tıkla!
11-05-2016 23:42 , Canbela Tarafından Yüklendi.
Kaynaklar: 11 / İndirilen: 0 / Boyut: 1.13 GB / Tamamlandı: 997
Torrenti İndir  Torrenti Şikayet Et Torrent Tanımı Tanıtım Videosu
IMDB Puanı: 6.3 6.3/10
Kategori: Animasyon
http://www.imdb.com/title/tt5548284/

LEGO Scooby Doo Haunted Hollywood 2016 TR BRRip XviD AC3 NOVA



Lego Scooby Doo Haunted Hollywood Hollywood’un oooh! Onlar cicili bicili kasaba büküm kendilerini bulmak gibi Shaggy ve Gizem A.Ş. çete ile birlikte favori K-9 hafiye, Scooby-Doo, katılın! klasik film canavarlar tüyler ürpertici bir döküm çağrısı için damla zaman efsanevi Brickton Studios VIP tur ise, Scooby ve arkadaşları rivayet hayaletlerin bir ilk elden deneyim olsun. Bu gerilim çözmek ve yaşlanma stüdyo kurtarmanın tek bir yolu var





Genişlet PHP:


Format 
AVI at 2 154 Kbps
Length 
1.13 GiB for 1s 15dk 17s 972ms
Video 
#0 : MPEG-4 Visual at 1 953 Kbps
Aspect 720 x 400 (1.800at 23.976 fps
Audio 
#0 : AC-3 at 192 Kbps
Infos 2 kanal48.0 KHz


Love the Coopers 2015 TR BRRip XviD AC3 NOVA Torrent

Genişletmek için Tıkla!
30-04-2016 22:07 , TanerEyLem Tarafından Yüklendi.
Kaynaklar: 6 / İndirilen: 0 / Boyut: 1.18 GB / Tamamlandı: 198
Torrenti İndir  Torrenti Şikayet Et Torrent Tanımı
Kategori: BRRip-BDRip



Love the Coopers 2015 TR BRRip XviD AC3 NOVA










Bir Noel komedisi olan Mutlu Yıllar'ın yönetmen koltuğunda Jessie Nelson (Benim Adım Sam) oturuyor, senaryosu ise Steven Rogers (Stepmom) tarafından yazılmış Charlotte Cooper'in tek bir noel dileği vardı. Ailesine mükemmel bir Noel anısı yaşatmak. Ancak dört kuşaklık Cooper ailesinin bir çatı altında toplanması kusursuzdan başka her şeye benziyordu. Konfor ve neşe yakalaması kolay bir şey değildi. Çok fazla kar yağacak, yiyecekler havalanacak ve beklenmedik konuklar onlara katılacaktır. Fakat önce, noel talihi Cooperların haneye yolculuğunu etkileyecektir.








*********************************************
Format : AVI at 1 630 Kbps

Length : 1.18 GiB for 1s 43dk 57s 867ms

Video #0 : MPEG-4 Visual at 1 429 Kbps

Aspect : 720 x 304 (2.368) at 23.976 fps

Audio #0 : AC-3 at 192 Kbps

Infos : 2 kanal, 48.0 KHz

*********************************************







Lonesome Dove Kilisesi 2014 TR DVDRip x264 NOVA Torrent

Genişletmek için Tıkla!
30-04-2016 15:32 , isoot Tarafından Yüklendi.
Kaynaklar: 0 / İndirilen: 0 / Boyut: 1.22 GB / Tamamlandı: 262
Torrenti İndir  Torrenti Şikayet Et Torrent Tanımı Tanıtım Videosu
IMDB Puanı: 6.0 6.0/10
Kategori: DVDRip
http://www.imdb.com/title/tt3447676/

Lonesome Dove Kilisesi 2014 TR DVDRip x264 NOVA


John kilise kurma hayalleri beslerken oğlu soygun ve cinayetle suçlanınca hayallerini bir kenara bırakarak oğlunu kurtarmaya çalışır. Tom berenger filmin başrol oyuncusudur.
Genişlet PHP:

General CLonesome Dove Kilisesi 2014 TR DVDRip x264 NOVA.mkv
Format 
Matroska at 1 937 Kbps
Length 
1.22 GiB for 1s 29dk 52s 936ms
Video 
#0 : AVC at 1 707 Kbps
Aspect 720 x 400 (2.368)
Audio #0 : AC-3 at 192 Kbps
Infos 2 kanal44.1 KHz
Life 2015 DUAL MULTi 1080p .BluRay x264 TR ENG NOVA Torrent

Genişletmek için Tıkla!
21-04-2016 11:33 , TanerEyLem Tarafından Yüklendi.
Kaynaklar: 0 / İndirilen: 0 / Boyut: 8.9 GB / Tamamlandı: 40
Torrenti İndir  Torrenti Şikayet Et Torrent Tanımı Tanıtım Videosu
IMDB Puanı: 6.1 6.1/10
Kategori: BluRay 1080p
http://www.imdb.com/title/tt2948840/

Life 2015 1080p DUAL MULTi BluRay x264 TR ENG NOVA

http://www.turknova.net/images/sablon/film/film-bilgisi.png
Dennis Stock (Robert Pattinson), 1955'te Life Dergisi'nde henüz çaylak bir fotoğrafçıyken, James Dean'in (Dane DeHaan) fotoğraflarını çekmek için kendisini ikna eder. Onun gelecek neslin müthiş bir temsilcisi olacağına inanan Stock, Dean ile birlikte Los Angeles'tan Fairmont'a uzanan yolculukta ona eşlik eder. Dean'in trajik sona yaklaştığından habersiz, onu tüm ortamlarda yalın ve samimi bir şekilde fotoğraflayarak aslında paha biçilemez bir çalışmaya imza attığının farkında değildir.
http://www.turknova.net/images/sablon/film/ekran-goruntusu.png



http://www.turknova.net/images/sablon/film/media-info.png
Genişlet PHP:



Format 
Matroska at 11.4 Mbps
Length 
8.90 GiB for 1s 51dk 19s 104ms
Video 
#0 : AVC at 8 238 Kbps
Aspect 1920 x 808 (2.376at 23.976 fps
Audio 
#0 : AC-3 at 192 Kbps
Infos 2 kanal48.0 KHz
Language 
tr
Audio 
#1 : DTS at 1 509 Kbps
Infos 6 kanal48.0 KHz
Language 
fr
Audio 
#2 : DTS at 1 509 Kbps
Infos 6 kanal48.0 KHz
Language 
en

Life 2015 DUAL LIMITED 720p BluRay X264 TR ENG NOVA Torrent

Genişletmek için Tıkla!
20-04-2016 20:29 , TanerEyLem Tarafından Yüklendi.
Kaynaklar: 0 / İndirilen: 0 / Boyut: 4.52 GB / Tamamlandı: 60
Torrenti İndir  Torrenti Şikayet Et Torrent Tanımı
Kategori: BluRay 720p

Life 2015 DUAL LIMITED 720p BluRay X264 TR ENG NOVA
Dennis Stock (Robert Pattinson), 1955'te Life Dergisi'nde henüz çaylak bir fotoğrafçıyken, James Dean'in (Dane DeHaan) fotoğraflarını çekmek için kendisini ikna eder. Onun gelecek neslin müthiş bir temsilcisi olacağına inanan Stock, Dean ile birlikte Los Angeles'tan Fairmont'a uzanan yolculukta ona eşlik eder. Dean'in trajik sona yaklaştığından habersiz, onu tüm ortamlarda yalın ve samimi bir şekilde fotoğraflayarak aslında paha biçilemez bir çalışmaya imza attığının farkında değildir.
Genişlet PHP:



Format 
Matroska at 5 809 Kbps
Length 
4.52 GiB for 1s 45dk 19s 137ms
Video 
#0 : AVC at 4 111 Kbps
Aspect 1280 x 536 (2.388at 23.976 fps
Audio 
#0 : AC-3 at 192 Kbps
Infos 2 kanal48.0 KHz
Language 
tr
Audio 
#1 : DTS at 1 509 Kbps
Infos 6 kanal48.0 KHz
Language 
en

Life 2015 TR BRRip XviD NOVA Torrent

Genişletmek için Tıkla!
20-04-2016 19:39 , TanerEyLem Tarafından Yüklendi.
Kaynaklar: 2 / İndirilen: 0 / Boyut: 991.94 MB / Tamamlandı: 180
Torrenti İndir  Torrenti Şikayet Et Torrent Tanımı
Kategori: BRRip-BDRip

Life 2015 TR BRRip XviD NOVA
Dennis Stock (Robert Pattinson), 1955'te Life Dergisi'nde henüz çaylak bir fotoğrafçıyken, James Dean'in (Dane DeHaan) fotoğraflarını çekmek için kendisini ikna eder. Onun gelecek neslin müthiş bir temsilcisi olacağına inanan Stock, Dean ile birlikte Los Angeles'tan Fairmont'a uzanan yolculukta ona eşlik eder. Dean'in trajik sona yaklaştığından habersiz, onu tüm ortamlarda yalın ve samimi bir şekilde fotoğraflayarak aslında paha biçilemez bir çalışmaya imza attığının farkında değildir.
Genişlet PHP:


Format 
AVI at 1 308 Kbps
Length 
992 MiB for 1s 46dk 3s 576ms
Video 
#0 : MPEG-4 Visual at 1 170 Kbps
Aspect 720 x 302 (2.384at 23.976 fps
Audio 
#0 : MPEG Audio at 128 Kbps
Infos 2 kanal48.0 KHz
Lanetli Cocuk The Boy 2016 TRSub HDRip XviD NOVA Torrent

Genişletmek için Tıkla!
09-04-2016 15:53 , TanerEyLem Tarafından Yüklendi.
Kaynaklar: 1 / İndirilen: 0 / Boyut: 749.68 MB / Tamamlandı: 297
Torrenti İndir  Torrenti Şikayet Et Torrent Tanımı Tanıtım Videosu
IMDB Puanı: 6.0 6.0/10
Kategori: BRRip-BDRip
http://www.imdb.com/title/tt3882082/

Lanetli Cocuk The Boy 2016 TRSub HDRip XviD NOVA

altyazı sunama dahildir
Film Özeti
Bebek bakıcısı olan Greta, bir İngiliz ailenin yanında iş bulur ancak ailenin bebekleri oyuncaktır. Başlarda komik gelen bu durum, bir süre sonra Greta’nın oyuncak bebeğin aslında gerçek olduğunu farketmesiyle bambaşka bir hal alacaktır.
[/php]
Format : Matroska at 1 125 Kbps
Length : 750 MiB for 1s 31dk 7s 680ms
Video #0 : AVC
Aspect : 1200 x 436 (2.388) at 25.000 fps
Audio #0 : AAC
Infos : 2 kanal, 44.1 KHz / 22.05 KHz
Text #0 : UTF-8
[/php]
Little Savages 2016 TR DVDRip XViD AC3 NOVA Torrent

Genişletmek için Tıkla!
06-04-2016 18:03 , TanerEyLem Tarafından Yüklendi.
Kaynaklar: 0 / İndirilen: 0 / Boyut: 743.35 MB / Tamamlandı: 145
Torrenti İndir  Torrenti Şikayet Et Torrent Tanımı
Kategori: DVDRip

Little Savages 2016 TR DVDRip XViD AC3 NOVA
Film Özeti
Culver adında büyüleyici bir göl kasabasını ziyarete gelen küçük bir çocuk ve ablası, kasabanın zorba çocukları ile başa çıkmaya çalışmaktadır. Tüm çocuklar, bir zamanlar civarda saklanan bir defineyi bulmaya çalışırken, birbirlerine karşı da bir yarış vereceklerdir.
Genişlet PHP:


Format 
AVI at 1 063 Kbps
Length 
743 MiB for 1s 37dk 45s 402ms
Video 
#0 : MPEG-4 Visual at 862 Kbps
Aspect 640 x 352 (1.818at 23.976 fps
Audio 
#0 : AC-3 at 192 Kbps
Infos 2 kanal48.0 KHz
LEGO DC Kozmik Carpisma 2016 1080p BluRay DUAL Torrent

Genişletmek için Tıkla!
23-03-2016 21:14 , mesut1777 Tarafından Yüklendi.
Kaynaklar: 7 / İndirilen: 1 / Boyut: 1.44 GB / Tamamlandı: 519
Torrenti İndir  Torrenti Şikayet Et Torrent Tanımı Tanıtım Videosu
IMDB Puanı: 6.2 6.2/10
Kategori: Animasyon
http://www.imdb.com/title/tt5251438/

LEGO DC Kozmik Carpisma 2016 1080p BluRay DUAL





Lego: DC – Kozmik Çarpışma filminin konusu, Dünya, evrenin karanlığında parlayan bir mücevher gibi… Ve bu parlak mücevher robot Brainiac için gezegen koleksiyonuna eklenmesi gereken son parça! Ama bu Brainiac’ın düşündüğü kadar kolay olmayacak, çünkü Adalet Takımı daha son sözü söylemedi!
Ama her şeyi düşünen Brainiac, Superman, Wonder Woman ve Green Lantern’i zamanda farklı yerlere gönderince, Adalet Takımı’nı bir araya getirmek işi Batman ve Flash’e düşer. Bu arada Cyborg ve Supergirl Dünya’da Brainiac’ın dronlarıyla savaşmaktadır.





Genişlet PHP:

Video
ID 
1
Format 
AVC
Format
/Info Advanced Video Codec
Format profile 
High@L4.1
Format settings
CABAC Yes
Format settings
ReFrames 4 frames
Codec ID 
V_MPEG4/ISO/AVC
Duration 
1h 18mn
Bit rate 
2 500 Kbps
Width 
1 920 pixels
Height 
1 080 pixels
Display aspect ratio 
16:9
Frame rate mode 
Constant
Frame rate 
23.976 fps
Color space 
YUV
Chroma subsampling 
4:2:0
Bit depth 
8 bits
Scan type 
Progressive
Bits
/(Pixel*Frame) : 0.050
Stream size 
1.34 GiB (93%)
Title DUAL-LAPUMiA
Writing library 
x264 core 148 r2597M e86f3a1
Default : Yes
Forced 
No
Audio
ID 
2
Format 
MPEG Audio
Format version 
Version 1
Format profile 
Layer 3
Mode 
Joint stereo
Codec ID 
A_MPEG/L3
Codec ID
/Hint MP3
Duration 
1h 18mn
Bit rate mode 
Constant
Bit rate 
128 Kbps
Channel
(s) : 2 channels
Sampling rate 
48.0 KHz
Compression mode 
Lossy
Stream size 
71.9 MiB (5%)
Writing library LAME3.99.5
Default : Yes
Forced 
No















London Has Fallen 2016 TRDub HD TS.XVID AC3 HQ.Hive-CM8 NOVA Torrent

Genişletmek için Tıkla!
21-03-2016 22:18 , TanerEyLem Tarafından Yüklendi.
Kaynaklar: 0 / İndirilen: 0 / Boyut: 1.29 GB / Tamamlandı: 637
Torrenti İndir  Torrenti Şikayet Et Torrent Tanımı
Kategori: Cam-TS-Rip

London Has Fallen 2016 TRDub HD TS.XVID AC3 HQ.Hive-CM8 NOVA
Büyük Britanya başbakanı, hiç beklenmedik bir zamanda ve sebebi anlaşılamaz bir şekilde hayatını kaybettiğinde bütün dünya liderleri cenaze töreni Londra’ya gelirler. Alınan görülmemiş derecede yüksek düzeyde güvenlik önlemlerine rağmen teröristler saldırılar düzenleyerek birçok vatandaşla birlikte 5 lideri öldürmeyi başarırlar. Saldırıların arkasında FBI’ın aradığı terörist Aamir Barkawi (Alon Aboutboul) vardır ve niyeti ABD Başkanı Benjamin Asher’ı (Aaron Eckhart) öldürmektir. Aksi takdirde dünyanın her yanında büyük bir kaosun başlayacağı tehdidinde bulunur. Başkanın yakın koruması Mike Banning (Gerard Butler), her ne pahasına olursa olsun başkanın teröristlerin eline geçmesini engellemek zorundadır.
[/php]
Format : AVI at 2 004 Kbps
Length : 1.29 GiB for 1s 32dk 18s 102ms
Video #0 : MPEG-4 Visual at 1 800 Kbps
Aspect : 720 x 368 (1.957) at 29.970 fps
Audio #0 : AC-3 at 192 Kbps
Infos : 2 kanal, 48.0 KHz
[/php]
Lila And Eve 2015 DUAL 1080p BluRay x264 DTS-RARBG TR EN NOVA Torrent

Genişletmek için Tıkla!
19-03-2016 21:26 , TanerEyLem Tarafından Yüklendi.
Kaynaklar: 0 / İndirilen: 0 / Boyut: 8.42 GB / Tamamlandı: 109
Torrenti İndir  Torrenti Şikayet Et Torrent Tanımı
Kategori: BluRay 1080p

Lila And Eve 2015 DUAL 1080p BluRay x264 DTS-RARBG TR EN NOVA
Film Özeti
Çatışmada öldürülen oğlu Stephon (Aml Ameen)’ın üzüntüsüyle depresyona giren Lila (Viola Davis), psikolojisini düzeltebilmek için Kayıp Çocukların Anneleri adında destek grubuna yazılır.
Gittiği bu grupta küçük kızını aynı gece kaybetmiş olan Eve (Jennifer Lopez) ile tanışır. Üzüntülü iki anne arasında dostluk başlar. Polis teşkilatının olaylara etkisiz ve yavaş tutumu karşısında oğlu için adalet arayan Lila, Eve ile birlikte oğlu Stephon’ı öldüren uyuşturucu satıcılarıyla karşı karşıya gelirler. İki acılı annenin ölen oğlunun katilini bulmak ve adalete teslim etmek için çıktıkları bu yolda başlarından geçen olaylar anlatılıyor.
[/php]
Format : Matroska at 12.8 Mbps
Length : 8.42 GiB for 1s 33dk 57s 215ms
Video #0 : AVC at 10.9 Mbps
Aspect : 1920 x 1036 (1.853) at 23.976 fps
Audio #0 : AC-3 at 192 Kbps
Infos : 2 kanal, 48.0 KHz
Language : tr
Audio #1 : DTS at 1 509 Kbps
Infos : 6 kanal, 48.0 KHz
Language : en
[/php]
Lila and Eve 2015 TR BDRip x264 NOVA Torrent

Genişletmek için Tıkla!
19-03-2016 07:50 , isoot Tarafından Yüklendi.
Kaynaklar: 0 / İndirilen: 0 / Boyut: 1.01 GB / Tamamlandı: 236
Torrenti İndir  Torrenti Şikayet Et Torrent Tanımı Tanıtım Videosu
IMDB Puanı: 5.8 5.8/10
Kategori: BRRip-BDRip
http://www.imdb.com/title/tt3442990/

Lila and Eve 2015 TR BDRip x264 NOVA
Lila, oğlunun kaybından dolayı derin acı çeken bir annedir. Psikolojik destek almak için gittiği dayanışma grubunda, Eve ile tanışır. Eve, Lila'y çok yakın davranarak oğlunun katillerini bulması için yardım edeceğine söz verir. İki kadın beraber hep ipuçlarını izleyerek intikamın peşinden giderler, hem de birbirlerine destek olarak yeniden ayağa kalkarlar... Yönetmenliğini Charles Stone'nun üstlendiği filmin senaryosu ise Pat Gilfillan'a ait. Filmin başrolleri ise Jennifer Lopez ve Viola Davis.
Genişlet PHP:

General           Lila and Eve 2015 TR BDRip x264 NOVA
Format            
Matroska at 1 541 Kbps
Length            
1.01 GiB for 1s 33dk 57s 211ms

Video 
#0          : AVC at 1 350 Kbps
Aspect            720 x 390 (1.846at 23.976 fps

Audio 
#0          : AC-3 at 192 Kbps
Infos             2 kanal48.0 KHz
Language          
tr

Lake Placid vs. Anaconda 2015 TR DVDRip XViD AC3 NOVA Torrent

Genişletmek için Tıkla!
17-03-2016 12:40 , TanerEyLem Tarafından Yüklendi.
Kaynaklar: 0 / İndirilen: 0 / Boyut: 736.84 MB / Tamamlandı: 227
Torrenti İndir  Torrenti Şikayet Et Torrent Tanımı
Kategori: DVDRip

Lake Placid vs. Anaconda 2015 TR DVDRip XViD AC3 NOVA
Film Özeti
Canavar yaratık temalı korku sinemasının uzun soluklu serilerinden olan "Kara Göl" ile "Anakonda" aynı filmde buluşuyor. Gölde dehşet saçan timsah ile dev anakonda yeni kurbanlar arıyorlar.
[/php]
Format : Matroska at 1 118 Kbps
Length : 737 MiB for 1s 32dk 8s 690ms
Video #0 : MPEG-4 Visual at 904 Kbps
Aspect : 640 x 352 (2.349) at 23.976 fps
Audio #0 : AC-3 at 192 Kbps
Infos : 2 kanal, 48.0 KHz
[/php]
Little Boy 2015 DUAL 1080p BluRay x264-GECKOS TR EN NOVA Torrent

Genişletmek için Tıkla!
15-03-2016 13:40 , TanerEyLem Tarafından Yüklendi.
Kaynaklar: 0 / İndirilen: 0 / Boyut: 7.79 GB / Tamamlandı: 151
Torrenti İndir  Torrenti Şikayet Et Torrent Tanımı
Kategori: BluRay 1080p

Little Boy 2015 DUAL 1080p BluRay x264-GECKOS TR EN NOVA
Film Özeti
Baba ile oğul arasındaki kelimelerle tarif edilemeyen sevginin anlatıldığı bu filmde, 8 yaşındaki bir erkek çocuk II. Dünya Savaşı'nı bitirmek için her şeyi yapmaya gönüllüdür ki böylece savaşta olan babasını eve getirebilsin...
Genişlet PHP:


Format 
Matroska at 10.4 Mbps
Length 
7.79 GiB for 1s 46dk 53s 451ms
Video 
#0 : AVC at 8 734 Kbps
Aspect 1920 x 800 (2.400at 23.976 fps
Audio 
#0 : AC-3 at 192 Kbps
Infos 2 kanal48.0 KHz
Language 
tr
Audio 
#1 : DTS at 1 509 Kbps
Infos 6 kanal48.0 KHz
Language 
en
Little Boy 2015 DUAL 720p BluRay x264-GECKOS TR EN NOVA Torrent

Genişletmek için Tıkla!
15-03-2016 13:20 , TanerEyLem Tarafından Yüklendi.
Kaynaklar: 0 / İndirilen: 0 / Boyut: 5.6 GB / Tamamlandı: 89
Torrenti İndir  Torrenti Şikayet Et Torrent Tanımı
Kategori: BluRay 720p

Little Boy 2015 DUAL 720p BluRay x264-GECKOS TR EN NOVA
Film Özeti
Baba ile oğul arasındaki kelimelerle tarif edilemeyen sevginin anlatıldığı bu filmde, 8 yaşındaki bir erkek çocuk II. Dünya Savaşı'nı bitirmek için her şeyi yapmaya gönüllüdür ki böylece savaşta olan babasını eve getirebilsin...
Genişlet PHP:


Format 
Matroska at 7 504 Kbps
Length 
5.60 GiB for 1s 46dk 53s 451ms
Video 
#0 : AVC at 5 805 Kbps
Aspect 1280 x 536 (2.388at 23.976 fps
Audio 
#0 : AC-3 at 192 Kbps
Infos 2 kanal48.0 KHz
Language 
tr
Audio 
#1 : DTS at 1 509 Kbps
Infos 6 kanal48.0 KHz
Language 
en
L A Slasher 2015 TR DVDRip XviD NOVA Torrent

Genişletmek için Tıkla!
23-02-2016 13:40 , TanerEyLem Tarafından Yüklendi.
Kaynaklar: 1 / İndirilen: 0 / Boyut: 846.58 MB / Tamamlandı: 209
Torrenti İndir  Torrenti Şikayet Et Torrent Tanımı
Kategori: DVDRip

L A Slasher 2015 TR DVDRip XviD NOVA
Los Angeles, TV realite programları, uyuşturucu ticareti ve yozlaşmış siyasetçilerle doludur. Bir adamın canına takeder ve kendine L.A Slasher ismini vererek ünlü insanları kaçırmaya başlar. Kendine bir Twitter hesabı açarak yaptığı işkenceleri bu hesaptan yayınlar. Ancak zamanla hesap inanılmaz bir takipçi sayısına ulaşınca, kendisi de nefret ettiği o ünlülerden biri haline gelir
[/php]
Format : AVI
Format/Info : Audio Video Interleave
File size : 847 MiB
Duration : 1h 24mn
Overall bit rate : 1 396 Kbps
Writing application : VirtualDubMod 1.5.10.2 (build 2540/release)
Writing library : VirtualDubMod build 2540/release
Video
ID : 0
Format : MPEG-4 Visual
Format profile : Advanced Simple@L5
Format settings, BVOP : 2
Format settings, QPel : No
Format settings, GMC : No warppoints
Format settings, Matrix : Default (H.263)
Muxing mode : Packed bitstream
Codec ID : XVID
Codec ID/Hint : XviD
Duration : 1h 24mn
Bit rate : 1 291 Kbps
Width : 720 pixels
Height : 288 pixels
Display aspect ratio : 2.500
Frame rate : 23.976 fps
Color space : YUV
Chroma subsampling : 4:2:0
Bit depth : 8 bits
Scan type : Progressive
Compression mode : Lossy
Bits/(Pixel*Frame) : 0.260
Stream size : 783 MiB (92%)
Writing library : XviD 66
[/php]
Legend 2015 1080p DUAL BluRay X264-NOVA.mkv Torrent

Genişletmek için Tıkla!
11-02-2016 23:07 , TanerEyLem Tarafından Yüklendi.
Kaynaklar: 0 / İndirilen: 0 / Boyut: 8.83 GB / Tamamlandı: 134
Torrenti İndir  Torrenti Şikayet Et Torrent Tanımı
Kategori: BluRay 1080p

eklenecektir
Legend 2015 720p DUAL BluRay DTS.x264 NOVA Torrent

Genişletmek için Tıkla!
11-02-2016 22:51 , TanerEyLem Tarafından Yüklendi.
Kaynaklar: 0 / İndirilen: 0 / Boyut: 4.47 GB / Tamamlandı: 132
Torrenti İndir  Torrenti Şikayet Et Torrent Tanımı
Kategori: BluRay 720p

eklenecektir
Legend 2015 TR BRRip XviD AC3 NOVA. Torrent

Genişletmek için Tıkla!
11-02-2016 22:35 , TanerEyLem Tarafından Yüklendi.
Kaynaklar: 2 / İndirilen: 0 / Boyut: 1.15 GB / Tamamlandı: 456
Torrenti İndir  Torrenti Şikayet Et Torrent Tanımı
Kategori: BRRip-BDRip

eklenecektir
Larry Gaye Renegade Male Flight Attendant 2015 TR BRRip XviD AC3 NOVA Torrent

Genişletmek için Tıkla!
07-02-2016 21:03 , TURKNOVA Tarafından Yüklendi.
Kaynaklar: 0 / İndirilen: 0 / Boyut: 1.13 GB / Tamamlandı: 140
Torrenti İndir  Torrenti Şikayet Et Torrent Tanımı
Kategori: BRRip-BDRip
Anonim Yükleyici

EKLENECEKTİR
Lost Room 2006 ( 6 Bolumluk Mini Dizi ) DVD Xvid TRSub Torrent

Genişletmek için Tıkla!
16-01-2016 21:50 , TURKNOVA Tarafından Yüklendi.
Kaynaklar: 0 / İndirilen: 0 / Boyut: 2.05 GB / Tamamlandı: 121
Torrenti İndir  Torrenti Şikayet Et Torrent Tanımı Tanıtım Videosu
IMDB Puanı: 8.3 8.3/10
Kategori: DVDRip
Anonim Yükleyicihttp://www.imdb.com/title/tt0830361/

The Lost Room 2006 ( 6 Bolumluk Mini Dizi ) DVD Xvid TRSub
thumbsup Tavsiyemdir thumbsup
1960`lı yıllarda, Chicago ve Los Angeles arasındaki 66. karayolu üzerinde binlerce odası olan yüzlerce motel bulunuyordu. Bir gün Sunshine Motel`inde meydana gelen bilinmeyen bir olay, sıradan şeyleri merak uyandıran şeyler haline dönüştürdü.

Sunshine Moteli`ndeki 10 numaralı odada bulunan bir çift makas, bir tarak ve buna benzer diğer nesneler, o gün sebebi açıklanamayacak bir şekilde benzersiz bazı özellikler kazandı. Onları sıradan nesneler olmaktan çıkarıp yok edilemez nesneler haline getiren özellikler...

Makas, herhangi bir nesneyi üç boyutlu olarak hareket ettirebilmektedir. Tarağı saçınıza sürdüğünüzde, zaman 10 saniyeliğine durmaktadır. Gözlük, kendisine 6 metre yarıçapı mesafedeki bütün ısıyı engelleyebilmektedir. Odanın kendisi, değişmez bir güvenli ortam ve kişinin gideceği yere açılabilen bir kapıdır. Ama aynı zamanda hayatınızın riske girmesine neden olabilecek bir yerdir.

Bu nesnelerden birine sahip olmak aynı zamanda onun güçlerine de sahip olmak demektir.

Bu nesneleri kullanmanın fiziksel, duygusal ve de psikolojik bazı bedelleri vardı. Bunlardan birini elinizde tutmanız bile sizi hedef haline getirebilirdi.

On yıllardır, belki de Motel odasında bu olayın ilk kez meydana geldiği zamandan beri, bazı gizemli kişiler bu nesneleri ele geçirmeye çabaladılar. Her zaman olduğu gibi, bazı kişiler sınırsız güce kavuşmanın hayalini kurmakta ve bu nesnelerin tamamını ele geçirerek bu güce kavuşacaklarına inanmaktadırlar. Diğerleri ise bir daha hiç kimsenin bu nesneleri kullanmaması için çabalamaktadırlar.

Amaçları zamanla değişse de, bu gizemli kişilerin taktikleri birbirine benzerdir. Bu nesnelerden birine sahip olduğunuzda çevrenizde hiç dostunuzun kalmaması üzücüdür. Sadece elinizdekine sahip olmak için uygun anı bekleyen kişiler vardır.

Dedektif Joe Miller`in Motel odasını öğrenmesi, vurulmuş ve ölmek üzere olan genç bir adamın ona bu nesnelerin en güçlüsü ve en çok tamah edilenini vermesiyle gerçekleşir: "Odanın Anahtarı". Küçük kızının odada kaybolmasıyla birlikte Joe`nun hayatı alt üst olacaktır. Kızını kurtarmak için vereceği bu amansız savaşta, Joe`nun sahip olduğu tek umudu bu anahtardır. Anahtara sahip olmak için her yolu deneyecek olan karanlık güçler Joe`yu kendilerine hedef seçeceklerdir.
Genişlet PHP:

General :Lost Room 2006 6 Bolumluk Mini Dizi DVD Xvid TRSub\The Lost Room .avi
Format 
AVI at 1 041 Kbps
Length 
349 MiB for 46dk 55s 813ms
Video 
#0 : MPEG-4 Visual at 897 Kbps
Aspect 640 x 352 (1.818at 23.976 fps
Audio 
#0 : MPEG Audio at 132 Kbps
Infos 2 kanal48.0 KHz
Lanet 2 Sinister TR 2015 BDRip x264 AC3 Torrent

Genişletmek için Tıkla!
15-01-2016 08:11 , isoot Tarafından Yüklendi.
Kaynaklar: 1 / İndirilen: 0 / Boyut: 1.16 GB / Tamamlandı: 476
Torrenti İndir  Torrenti Şikayet Et Torrent Tanımı Tanıtım Videosu
IMDB Puanı: 5.3 5.3/10
Kategori: BRRip-BDRip
http://www.imdb.com/title/tt2752772/

Lanet 2 Sinister TR 2015 BDRip x264 AC3


Genç bir anne ve 9 yaşındaki ikiz oğulları şehir dışında, taşra bir bölgeye taşınırlar. Ama yeni taşındıkları bu evin ölüm döşeği olacağından habersizdirler. Evde yaşamakta olan Bughuul, çocuklardan birini tüm aileyi öldürmeye ve yaşananları filme almaya ikna eder. Dedektif So & So ise davayı tek başına üstlenerek bu vahşetin daha fazla büyümesini önlemeye karar verir.
Genişlet PHP:

General Lanet 2 Sinister TR 2015 BDRip x264 AC3.mkv
Format 
Matroska at 1 724 Kbps
Length 
1.16 GiB for 1s 36dk 43s 640ms
Video 
#0 : AVC at 1 600 Kbps
Aspect 640 x 272 (2.353at 23.976 fps
Audio 
#0 : AC-3 at 128 Kbps
Infos 2 kanal44.1 KHz
Labirent Alev Deneyleri 2015 m1080p BLURAY x264 DUAL TR ENG Torrent

Genişletmek için Tıkla!
20-12-2015 17:47 , Sin4Life Tarafından Yüklendi.
Kaynaklar: 2 / İndirilen: 0 / Boyut: 2.19 GB / Tamamlandı: 453
Torrenti İndir  Torrenti Şikayet Et Torrent Tanımı Tanıtım Videosu
IMDB Puanı: 6.5 6.5/10
Kategori: BluRay 1080p
http://www.imdb.com/title/tt4046784/

Tür: Aksiyon, Bilim-Kurgu, Gerilim
İMDB Puanı: 6,5/10 - 78.553
Vizyon Tarihi: 18 Eylül 2015 (Türkiye)
Süre: 132 dakika

Özet

Kapana kısıldıkları Labirent deneyinden kurtulmayı muvaffak olan gençleri bu sefer dış dünyada hiç de ummadıkları tehlikeler bekliyordur. Kıyamet sonrası bir manzarayla karşılaşan ve bir şekilde "değerli" olduklarına inanan gençler, kendileri için hazırlanan tasarıların ikinci mertebesine geçtiklerinden haberdar değildir. Serinin bu bölümünde Thomas ve Kayranlı arkadaşları şimdiye kadarki en zorlu mücadelelerini vermek zorundadır: Başkaldırı denilen gizemli ve kuvvetli organizasyonun ne olduğunu bulmak

Tür : Matroska at 2 384 Kbps
Boyut : 2.19 GiB for 2s 11dk 42s 912ms

Video #0 : AVC at 1 999 Kbps
Aspect : 1920 x 800 (2.400) at 23.976 fps

Audio #0 : AC-3 at 192 Kbps
Infos : 2 kanal, 48.0 KHz
Language : tr

Audio #1 : AC-3 at 192 Kbps
Infos : 2 kanal, 48.0 KHz
Language : en

Limitless Sezon 01 Bolum 03 TRSub HDTV XviD Torrent

Genişletmek için Tıkla!
08-10-2015 10:16 , Nukan Tarafından Yüklendi.
Kaynaklar: 6 / İndirilen: 0 / Boyut: 292.24 MB / Tamamlandı: 87
Torrenti İndir  Torrenti Şikayet Et Torrent Tanımı Tanıtım Videosu
IMDB Puanı: 8.1 8.1/10
Kategori: Yabancı Dizi
http://www.imdb.com/title/tt4422836/

Limitless 1.Sezon 3.Bölüm Türkçe Altyazılı - HDTV
(Bölüm Adı: The Legend of Marcos Ramos)



Filminin başrol oyuncusu olan Bradley Cooper dizide’de yer almaktadır, devamı niteliğinde çekilen dizide Eddie’nin sıradan bir kişi olan Brian’e beynini kullanabileceği haplardan bir tane vererek macera başlar ancak Brian’in beklediğinden daha tuhaf bir hale gelen olaylar beklentisinin çok üstündedir gerçek anlamda çevresinde yaşananları anlaması çözümlemesi birçok gerçeği göstermiş ancak seri cinayetler arasında kalması onu şüpheli durumuna düşürür.

Dedektiflerin peşine düşmesiyle onlardan kaçmayı başaran Brian ne kadar zeki olduğunu göstererek aslında büyük bir hata yapar, dedektiflerin zihin geliştirici haplardan kullandığını fark etmesiyle içinde bulunduğu tehlike iyice artacaktır.

Genişlet PHP:

General
Complete name 
Limitless.S01E03.HDTV.x264-Nukan[ettv]
Format MPEG-4
Format profile 
Base Media
Codec ID 
isom
File size 
292 MiB
Duration 
42mn 41s
Overall bit rate mode 
Variable
Overall bit rate 
957 Kbps
Encoded date 
UTC 2015-10-06 16:42:06
Tagged date 
UTC 2015-10-06 16:42:06
Video
ID 
1
Format 
AVC
Format
/Info Advanced Video Codec
Format profile 
High@L3.1
Format settings
CABAC Yes
Format settings
ReFrames 5 frames
Codec ID 
avc1
Codec ID
/Info Advanced Video Coding
Duration 
42mn 41s
Bit rate 
834 Kbps
Maximum bit rate 
5 641 Kbps
Width 
720 pixels
Height 
404 pixels
Display aspect ratio 
16:9
Frame rate mode 
Constant
Frame rate 
23.976 fps
Color space 
YUV
Chroma subsampling 
4:2:0
Bit depth 
8 bits
Scan type 
Progressive
Bits
/(Pixel*Frame) : 0.120
Stream size 
254 MiB (87%)
Writing library x264 core 148 r2597 e86f3a1
Encoding settings 
cabac=ref=deblock=1:1:analyse=0x3:0x133 me=umh subme=psy=psy_rd=1.00:0.00 mixed_ref=me_range=16 chroma_me=trellis=8x8dct=cqm=deadzone=21,11 fast_pskip=chroma_qp_offset=-threads=16 lookahead_threads=sliced_threads=nr=decimate=interlaced=bluray_compat=constrained_intra=bframes=b_pyramid=b_adapt=b_bias=direct=weightb=open_gop=weightp=keyint=250 keyint_min=23 scenecut=40 intra_refresh=rc_lookahead=60 rc=crf mbtree=crf=19.0 qcomp=0.60 qpmin=qpmax=69 qpstep=ip_ratio=1.40 aq=1:1.00
Encoded date 
UTC 2015-10-06 16:30:48
Tagged date 
UTC 2015-10-06 16:42:06
Matrix coefficients 
BT.709
Audio
ID 
2
Format 
AAC
Format
/Info Advanced Audio Codec
Format profile 
LC
Codec ID 
40
Duration 
42mn 41s
Bit rate mode 
Variable
Bit rate 
119 Kbps
Maximum bit rate 
152 Kbps
Channel
(s) : 2 channels
Channel positions 
FrontL R
Sampling rate 
48.0 KHz
Compression mode 
Lossy
Stream size 
36.4 MiB (12%)
Encoded date UTC 2015-10-06 16:42:06
Tagged date 
UTC 2015-10-06 16:42:06





Limitless Sezon 01 Bolum 02 TRSub HDTV XviD Torrent

Genişletmek için Tıkla!
01-10-2015 11:25 , Nukan Tarafından Yüklendi.
Kaynaklar: 7 / İndirilen: 0 / Boyut: 305.44 MB / Tamamlandı: 103
Torrenti İndir  Torrenti Şikayet Et Torrent Tanımı
Kategori: Yabancı Dizi



Limitless 1.Sezon 2.Bölüm Türkçe Altyazılı - HDTV
Bölüm Adı: Badge! Gun!









Filminin başrol oyuncusu olan Bradley Cooper dizide’de yer almaktadır, devamı niteliğinde çekilen dizide Eddie’nin sıradan bir kişi olan Brian’e beynini kullanabileceği haplardan bir tane vererek macera başlar ancak Brian’in beklediğinden daha tuhaf bir hale gelen olaylar beklentisinin çok üstündedir gerçek anlamda çevresinde yaşananları anlaması çözümlemesi birçok gerçeği göstermiş ancak seri cinayetler arasında kalması onu şüpheli durumuna düşürür.

Dedektiflerin peşine düşmesiyle onlardan kaçmayı başaran Brian ne kadar zeki olduğunu göstererek aslında büyük bir hata yapar, dedektiflerin zihin geliştirici haplardan kullandığını fark etmesiyle içinde bulunduğu tehlike iyice artacaktır.








Genişlet PHP:

General Complete name Limitless.S01E02.HDTV.x264-Nukan[ettv].mp4 Format MPEG-4 Format profile Base Media Codec ID isom File size 305 MiB Duration 44mn 6s Overall bit rate mode Variable Overall bit rate 968 Kbps Encoded date UTC 2015-09-29 20:10:48 Tagged date UTC 2015-09-29 20:10:48  Video ID 1 Format AVC Format/Info Advanced Video Codec Format profile High@L3.1 Format settingsCABAC Yes Format settingsReFrames 5 frames Codec ID avc1 Codec ID/Info Advanced Video Coding Duration 44mn 5s Bit rate 844 Kbps Maximum bit rate 6 845 Kbps Width 720 pixels Height 404 pixels Display aspect ratio 16:9 Frame rate mode Constant Frame rate 23.976 fps Color space YUV Chroma subsampling 4:2:0 Bit depth 8 bits Scan type Progressive Bits/(Pixel*Frame) : 0.121 Stream size 266 MiB (87%) Writing library x264 core 148 r2597 e86f3a1 Encoding settings cabac=ref=deblock=1:1:analyse=0x3:0x133 me=umh subme=psy=psy_rd=1.00:0.00 mixed_ref=me_range=16 chroma_me=trellis=8x8dct=cqm=deadzone=21,11 fast_pskip=chroma_qp_offset=-threads=16 lookahead_threads=sliced_threads=nr=decimate=interlaced=bluray_compat=constrained_intra=bframes=b_pyramid=b_adapt=b_bias=direct=weightb=open_gop=weightp=keyint=250 keyint_min=23 scenecut=40 intra_refresh=rc_lookahead=60 rc=crf mbtree=crf=19.0 qcomp=0.60 qpmin=qpmax=69 qpstep=ip_ratio=1.40 aq=1:1.00 Encoded date UTC 2015-09-29 17:52:06 Tagged date UTC 2015-09-29 20:10:49 Matrix coefficients BT.709  Audio ID 2 Format AAC Format/Info Advanced Audio Codec Format profile LC Codec ID 40 Duration 44mn 6s Bit rate mode Variable Bit rate 120 Kbps Maximum bit rate 153 Kbps Channel(s) : 2 channels Channel positions FrontL R Sampling rate 48.0 KHz Compression mode Lossy Stream size 37.7 MiB (12%) Encoded date UTC 2015-09-29 20:10:49 Tagged date UTC 2015-09-29 20:10:49   








Lego DC Comics Super Heroes Justice League vs Bizarro League (2015) TR BRRip x264 NOVA Torrent

Genişletmek için Tıkla!
16-09-2015 23:57 , desou2aaa Tarafından Yüklendi.
Kaynaklar: 3 / İndirilen: 1 / Boyut: 764.62 MB / Tamamlandı: 335
Torrenti İndir  Torrenti Şikayet Et Torrent Tanımı
Kategori: Animasyon

Lego DC Comics Super Heroes Justice League vs Bizarro League (2015) TR BRRip x264 NOVA









Nerede bir kaos ve yıkım varsa bilin ki, söylenenleri tam tersinden anlayan, söylemek istediklerinin tam tersini söyleyen ve doğru olanın tam zıddını yapan Superman’in kafası karışık klonu Bizarro orada. Süperman artık ona yeni bir ev ya da yeni bir Bizarro Dünyası bulunması gerektiğine karar verir. Dünyada ise, Süperman ve Adalet Takımı her zaman yaptıları gibi kötü adamları durdurmaktadır. Tam bu sırada Bizarro Dünyası, Darkseid adlı kötü bir adamın tehdidi altına girer. Bunun üzerine Bizarro dünyaya geri döner ve Adalet Takımını klonlayarak tıpkı kendisi gibi kafası karışık kahramanlar oluşturur.

















Genişlet PHP:

General...........: Lego DC Comics Super Heroes Justice League vs Bizarro League (2015TR BRRip x264 NOVA

Format
............: Matroska at 2 194 Kbps  
Length
............: 765 MİB for 48dk 42sn 

Video #1..........: AVC at 2 000 Kbps  
Aspect............: 720 x 320 piksel 

Audio #1..........: MP3 at 192 Kbps  
Infos.............: 2 kanal48.0 KHz  
Language
..........: TR



Looney Tunes Rabbit Run Tavsanin Kacisi 2015 TR BRRip x264 NOVA Torrent

Genişletmek için Tıkla!
13-09-2015 12:06 , desou2aaa Tarafından Yüklendi.
Kaynaklar: 10 / İndirilen: 1 / Boyut: 1.37 GB / Tamamlandı: 902
Torrenti İndir  Torrenti Şikayet Et Torrent Tanımı
Kategori: Animasyon

Looney Tunes Rabbit Run Tavşanın Kaçışı (2015) TR BRRip x264 NOVA









Bugs Bunny ve Lola Lunny'nin peşine düştükleri görünmezlik spreyi, onları New York ve Paris sokaklarına kadar götürür.















Genişlet PHP:

General...........: Looney Tunes Rabbit Run Tavsanin Kacisi (2015TR BRRip x264 NOVA

Format
............: Matroska at 2 640 Kbps  
Length
............: 1.37 GB for 1s 14dk 

Video #1..........: AVC at 2 446 Kbps  
Aspect............: 720 x 320 piksel 

Audio #1..........: MP3 at 192 Kbps  
Infos.............: 2 kanal48.0 KHz  
Language
..........: TR



LEGO DC Super Heroes: Justice League - Attack of the Legion of Doom 2015 TRDublaj BRRip XviD OpeD Torrent

Genişletmek için Tıkla!
25-08-2015 22:27 , MackRuLzz Tarafından Yüklendi.
Kaynaklar: 4 / İndirilen: 0 / Boyut: 901.42 MB / Tamamlandı: 393
Torrenti İndir  Torrenti Şikayet Et Torrent Tanımı
Kategori: Animasyon



LEGO DC Super Heroes: Justice League - Attack of the Legion of Doom 2015 TRDublaj BRRip XviD OpeD















Genişlet PHP:

General           LEGO.DC.Comics.Super.Heroes.Justice.League.Attack.of.the.Legion.of.Doom.BRRip.2015.TRDublaj.avi

Format            
AVI at 1 636 Kbps
Length            
901 MiB for 1h 17mn 1s 536ms

Video 
#0          : MPEG-4 Visual at 1 499 Kbps
Aspect            720 x 400 (1.800at 23.976 fps

Audio 
#0          : MPEG Audio at 128 Kbps
Infos             2 channels48.0 KHz







Level Dergisi Agustos 2015 Torrent

Genişletmek için Tıkla!
18-08-2015 17:28 , TURKNOVA Tarafından Yüklendi.
Kaynaklar: 0 / İndirilen: 0 / Boyut: 45.85 MB / Tamamlandı: 283
Torrenti İndir  Torrenti Şikayet Et Torrent Tanımı
Kategori: E-Book
Anonim Yükleyici

Level Dergisi Agustos 2015

Last Knights 2015 1080p BluRay DTS x264 NOVA Torrent

Genişletmek için Tıkla!
17-08-2015 04:27 , NoVa Tarafından Yüklendi.
Kaynaklar: 0 / İndirilen: 0 / Boyut: 9.63 GB / Tamamlandı: 241
Torrenti İndir  Torrenti Şikayet Et Torrent Tanımı
Kategori: BluRay 1080p



Last Knights 2015 1080p BluRay DTS x264 NOVA








Bilinmeyen bir dönemde, sadık ve cesaretli Raiden (Clive Owen) ve hükümdarı (Morgan Freeman) yolsuzluk ve mutlak güce karşı koyar. Hayatlarını tehlikeye sokacak bir olaya bulaşırlar.










Genişlet PHP:

Format            Matroska at 12.0 Mbps

Length            
9.63 GiB for 1s 54dk 54s 731ms

Video 
#0          : AVC at 10.5 Mbps
Aspect            1920 x 800 (2.400at 23.976 fps

Audio 
#0          : DTS at 1 509 Kbps
Infos             6 kanal48.0 KHz
Language          
en







Last Knights 2015 720p BluRay DTS x264 NOVA Torrent

Genişletmek için Tıkla!
17-08-2015 04:27 , NoVa Tarafından Yüklendi.
Kaynaklar: 0 / İndirilen: 0 / Boyut: 5.38 GB / Tamamlandı: 183
Torrenti İndir  Torrenti Şikayet Et Torrent Tanımı
Kategori: BluRay 720p



Last Knights 2015 720p BluRay DTS x264 NOVA








Bilinmeyen bir dönemde, sadık ve cesaretli Raiden (Clive Owen) ve hükümdarı (Morgan Freeman) yolsuzluk ve mutlak güce karşı koyar. Hayatlarını tehlikeye sokacak bir olaya bulaşırlar.










Genişlet PHP:

Format            Matroska at 6 709 Kbps

Length            
5.38 GiB for 1s 54dk 54s 731ms

Video 
#0          : AVC at 5 199 Kbps
Aspect            1280 x 536 (2.388at 23.976 fps

Audio 
#0          : DTS at 1 509 Kbps
Infos             6 kanal48.0 KHz
Language          
en







Last Knights 2015 BDRip XviD NOVA Torrent

Genişletmek için Tıkla!
17-08-2015 04:27 , NoVa Tarafından Yüklendi.
Kaynaklar: 1 / İndirilen: 0 / Boyut: 695.64 MB / Tamamlandı: 352
Torrenti İndir  Torrenti Şikayet Et Torrent Tanımı
Kategori: BRRip-BDRip



Last Knights 2015 BDRip XviD NOVA








Bilinmeyen bir dönemde, sadık ve cesaretli Raiden (Clive Owen) ve hükümdarı (Morgan Freeman) yolsuzluk ve mutlak güce karşı koyar. Hayatlarını tehlikeye sokacak bir olaya bulaşırlar.










Genişlet PHP:

Format            Matroska at 846 Kbps

Length            
696 MiB for 1s 54dk 54s 792ms

Video 
#0          : MPEG-4 Visual at 702 Kbps
Aspect            640 x 272 (2.353at 23.976 fps

Audio 
#0          : MPEG Audio at 128 Kbps
Infos             2 kanal48.0 KHz
Language          
en







Love Rosie - Ask Rosie 2014 TR BRRip XviD-OpeD Torrent

Genişletmek için Tıkla!
02-08-2015 03:29 , MackRuLzz Tarafından Yüklendi.
Kaynaklar: 0 / İndirilen: 0 / Boyut: 1.18 GB / Tamamlandı: 283
Torrenti İndir  Torrenti Şikayet Et Torrent Tanımı
Kategori: BRRip-BDRip



Love Rosie - Ask Rosie 2014 TR BRRip XviD-OpeD








Rosie ve Alex 5 yaşından beri birbirlerinin en iyi dostu olmuştur; bu yüzden aralarında aşka ve sevgili olmaya dair hiçbir ihtimal olmamıştır. Ama ne zaman olay sevgili seçimlerine gelse, birbirlerinin en büyük düşmanı olmuşlardır. 18 yaşında yapılan bir seçim, kaçırılan bir fırsat ise hayatlarını bambaşka yönlere sürükler. Ama aralarındaki bağ, kilometrelerce mesafeye, akıp giden zamana yenilmez. Bu arada hayal kırıklıklarıyla sonuçlanan ilişkiler, evlilikler, boşanmalar da cabası… Birbirlerini yeniden bulduklarında ikinci bir şansları olacak mı yoksa her şey için çok mu geç kaldılar?









Genişlet PHP:

General           Ask.Rosie.BRRip.2014.TR.BRRip.XviD.OpeD.avi

Format            
AVI at 1 636 Kbps
Length            
1.18 GiB for 1h 42mn 57s 171ms

Video 
#0          : MPEG-4 Visual at 1 499 Kbps
Aspect            720 x 304 (2.368at 23.976 fps

Audio 
#0          : MPEG Audio at 128 Kbps
Infos             2 channels48.0 KHz







Limonata 2015 Yerli Sansursuz HDRip XviD NOVA Torrent

Genişletmek için Tıkla!
24-07-2015 13:19 , TanerEyLem Tarafından Yüklendi.
Kaynaklar: 4 / İndirilen: 0 / Boyut: 998.94 MB / Tamamlandı: 3,219
Torrenti İndir  Torrenti Şikayet Et Torrent Tanımı
Kategori: Türk Filmi

Limonata 2015 Yerli Sansursuz HDRip XviD NOVA
Suat hayatını Makedonyada sürdürür ve tır şöförcülüğü yapar. Gayet güzel bir hayatı olan suat hastalanır ve kendini toplayamaz ve hastalığı nedeniyle yatağa düşer. Oğlu Sakip'ten ölmeden önce son birşey isteyecektir.. Oğlunu yanına çağırır. Suat istanbul'da çalıştığı zamanlar imam nikahı ile evlendiği bir kadından çoçuğu olduğunu oğluna söyler. Sakip'ten tek isteği gidip Selim'i ölmeden önce helallik için yanına getirmesidir. Sakip bunun üzerine babasının eski arabasına binip kardeşini bulmak için istanbul yoluna düşer..

Serkan Keskin ile Ertan Saba'nın başrollerde oynadığı filmi Leyla Mecnundan tanıdığımız Ali Altay yönetiyor. Bu ilk yönetmenlik deneyimi olmasına rağmen başarılı bir film çıkarmış...
Genişlet PHP:


Format 
AVI at 1 329 Kbps
Length 
999 MiB for 1s 45dk 7s 128ms
Video 
#0 : MPEG-4 Visual at 1 191 Kbps
Aspect 720 x 388 (1.856at 24.000 fps
Audio 
#0 : MPEG Audio at 128 Kbps
Infos 2 kanal48.0 KHz