Merlin Sezon 1-2-3 BoXseT DVDRip XviD DuaL TrDublaj Gümüş Torrent (Sadece indirme miktarınızın yarısı kaytta tutulur! Rationuzu artırmak için indirip seed edin!). İstek (Bu torrent site üyesi tarafından istek yapılmıştır).
9.5 puan 24 oy da.
9.5 puan 24 oy da.
Zaten oyladınız!
İndir
Bookmark and Share
Torrent İndir
Eklendi 17-04-12 16:00 - (Son eş hareketi: 05-05-14 03:06)
Tür BoxSet
Boyut 14.87 GB 40 dosya
Tıklanma 842
İndirilme 82 defa
Uploader EwiLDeaD
Yorumlar 13 Yorumlar
Eşler 0 seeder, 0 leecher = toplam 0 eş
Reseed Reseed istemek için buraya tıklayın!
Torrenti yükleyen arkadaşımıza teşekkür edenler: (66)

IMDB/Web Link
IMDb - Merlin (TV Series 2008– )
IMDb - Merlin (TV Series 2008– )Director:
Writers:
Genres: Adventure | Drama | Family | Fantasy
User Rating: 7.7/10 7.7/10 ( votes)
Language: English
Country: UK
Runtime: 45 min(39 episodes)
Storyline: Young Merlin is a teenager, discovering and then learning to master his magical gift. Magister Gaius, King Uther Pendragon's learned court physician to whom he's assigned as humble page, teaches him medicine, coaches his magical self-study, and warns him of Uther's strong aversion to magic. Merlin becomes squire to the noble but imprudent crown prince, Arthur, whose fate is linked with Merlin.Written by KGF Vissers  
Plot Keywords: King | Prince | Magic | Knight | Witch |  »
Taglines: The Darkest Hour Is Just Before The Dawn »
IMDB Link: http://www.imdb.com/title/tt1199099/
Trailers & Videos

Torrent Merlin Sezon 1-2-3 BoXseT DVDRip XviD DuaL TrDublaj indir
Merlin Sezon 1-2-3 BoXseT DVDRip XviD DuaL TrDublaj


Yükleyici notu


Merlin 1, 2 ve 3. sezon Boxset halinde dual ( Türkçe ve İngilizce ) olarak sunulmuştur. Bir kaç videoya ait caps ve media info bilgisi eklenmiştir. 4. Sezon takipte olup en kısa sürede eklenecektir.


 

 

Merlin doğuştan sihir yeteneğine sahip olan bir çocuktur bu özellik onu diğer insanlardan ayırır.çünkü hiç bir büyücü doğuştan bu yeteneklere sahip değildir.annesi başka bir ülkede olan bir doktor dostuna mektup yazar Merlini anlatır ve ona yardımcı olmasını ister.Merlin doktorun yanına yola çıkar.
Gittiği yerde sihir ve büyü yapmayı kral yasaklamıştır ve cezası idamdır.merlin sihir yeteneğinin fakındadır ama nasıl kontrol edeceğini bilememektedir.kral büyü ve sihiri yasaklamayla birlikte ejderhalarıda yoketmiştir.ama sadece birtanesini sarayının derinliklerinde tutmaktadır.o ejderha merlinden kralı korumasını ister eğer kralı korumassa düşmanlarının onu öldüreceğini ve toprakları paylaşacağını söyler.merlin daha sonra bir kahramanlık yapıp kralın oğlunu ölmekten kurtarır ve kral merlini oğlunun hizmetkarı olarak ilan eder.artık bütün krallığın kaderi merlinin elindedir.

 

 
 
 
 

 



General
Complete name                            : C:\Users\root\Desktop\torrent inenler\Merlin Sezon 03 DVDRip XviD DuaL TrDublaj\Merlin.S03B01.DVDRip.DUAL.XviD.avi
Format                                   : AVI
Format/Info                              : Audio Video Interleave
File size                                : 390 MiB
Duration                                 : 43mn 16s
Overall bit rate mode                    : Variable
Overall bit rate                         : 1 259 Kbps
Writing application                      : VirtualDubMod 1.5.10.2 (build 2540/release)
Writing library                          : VirtualDubMod build 2540/release

Video
ID                                       : 0
Format                                   : MPEG-4 Visual
Format profile                           : Advanced Simple@L5
Format settings, BVOP                    : 2
Format settings, QPel                    : No
Format settings, GMC                     : No warppoints
Format settings, Matrix                  : Default (H.263)
Muxing mode                              : Packed bitstream
Codec ID                                 : XVID
Codec ID/Hint                            : XviD
Duration                                 : 43mn 16s
Bit rate                                 : 991 Kbps
Width                                    : 624 pixels
Height                                   : 352 pixels
Display aspect ratio                     : 16:9
Frame rate                               : 25.000 fps
Color space                              : YUV
Chroma subsampling                       : 4:2:0
Bit depth                                : 8 bits
Scan type                                : Progressive
Compression mode                         : Lossy
Bits/(Pixel*Frame)                       : 0.180
Stream size                              : 307 MiB (79%)
Writing library                          : XviD 57

Audio #1
ID                                       : 1
Format                                   : MPEG Audio
Format version                           : Version 1
Format profile                           : Layer 3
Mode                                     : Joint stereo
Mode extension                           : MS Stereo
Codec ID                                 : 55
Codec ID/Hint                            : MP3
Duration                                 : 43mn 16s
Bit rate mode                            : Constant
Bit rate                                 : 128 Kbps
Channel(s)                               : 2 channels
Sampling rate                            : 48.0 KHz
Compression mode                         : Lossy
Stream size                              : 39.6 MiB (10%)
Alignment                                : Aligned on interleaves
Interleave, duration                     : 40 ms (1.00 video frame)
Interleave, preload duration             : 504 ms
Writing library                          : LAME3.90.3

Audio #2
ID                                       : 2
Format                                   : MPEG Audio
Format version                           : Version 1
Format profile                           : Layer 3
Mode                                     : Joint stereo
Mode extension                           : MS Stereo
Codec ID                                 : 55
Codec ID/Hint                            : MP3
Duration                                 : 43mn 15s
Bit rate mode                            : Variable
Bit rate                                 : 128 Kbps
Channel(s)                               : 2 channels
Sampling rate                            : 48.0 KHz
Compression mode                         : Lossy
Stream size                              : 37.8 MiB (10%)
Alignment                                : Aligned on interleaves
Interleave, duration                     : 24 ms (0.60 video frame)
Interleave, preload duration             : 509 ms
Writing library                          : LAME3.98r
Encoding settings                        : -m j -V 4 -q 2 -lowpass 17 --abr 128


General
Complete name                            : C:\Users\root\Desktop\torrent inenler\Merlin Sezon 03 DVDRip XviD DuaL TrDublaj\Merlin.S03B11.DVDRip.DUAL.XviD.avi
Format                                   : AVI
Format/Info                              : Audio Video Interleave
File size                                : 390 MiB
Duration                                 : 44mn 1s
Overall bit rate mode                    : Variable
Overall bit rate                         : 1 239 Kbps
Writing application                      : VirtualDubMod 1.5.10.2 (build 2540/release)
Writing library                          : VirtualDubMod build 2540/release

Video
ID                                       : 0
Format                                   : MPEG-4 Visual
Format profile                           : Advanced Simple@L5
Format settings, BVOP                    : 2
Format settings, QPel                    : No
Format settings, GMC                     : No warppoints
Format settings, Matrix                  : Default (H.263)
Muxing mode                              : Packed bitstream
Codec ID                                 : XVID
Codec ID/Hint                            : XviD
Duration                                 : 44mn 1s
Bit rate                                 : 972 Kbps
Width                                    : 624 pixels
Height                                   : 352 pixels
Display aspect ratio                     : 16:9
Frame rate                               : 25.000 fps
Color space                              : YUV
Chroma subsampling                       : 4:2:0
Bit depth                                : 8 bits
Scan type                                : Progressive
Compression mode                         : Lossy
Bits/(Pixel*Frame)                       : 0.177
Stream size                              : 306 MiB (78%)
Writing library                          : XviD 57

Audio #1
ID                                       : 1
Format                                   : MPEG Audio
Format version                           : Version 1
Format profile                           : Layer 3
Mode                                     : Joint stereo
Mode extension                           : MS Stereo
Codec ID                                 : 55
Codec ID/Hint                            : MP3
Duration                                 : 44mn 1s
Bit rate mode                            : Constant
Bit rate                                 : 128 Kbps
Channel(s)                               : 2 channels
Sampling rate                            : 48.0 KHz
Compression mode                         : Lossy
Stream size                              : 40.3 MiB (10%)
Alignment                                : Aligned on interleaves
Interleave, duration                     : 40 ms (1.00 video frame)
Interleave, preload duration             : 504 ms
Writing library                          : LAME3.90.3

Audio #2
ID                                       : 2
Format                                   : MPEG Audio
Format version                           : Version 1
Format profile                           : Layer 3
Mode                                     : Joint stereo
Mode extension                           : MS Stereo
Codec ID                                 : 55
Codec ID/Hint                            : MP3
Duration                                 : 43mn 59s
Bit rate mode                            : Variable
Bit rate                                 : 128 Kbps
Channel(s)                               : 2 channels
Sampling rate                            : 48.0 KHz
Compression mode                         : Lossy
Stream size                              : 38.4 MiB (10%)
Alignment                                : Aligned on interleaves
Interleave, duration                     : 24 ms (0.60 video frame)
Interleave, preload duration             : 544 ms
Writing library                          : LAME3.98r
Encoding settings                        : -m j -V 4 -q 2 -lowpass 17 --abr 128


General
Complete name                            : C:\Users\root\Desktop\torrent inenler\Merlin Sezon 02 DVDRip XviD DuaL TrDublaj\Merlin.S02B01.DVDRip.DUAL.XviD.avi
Format                                   : AVI
Format/Info                              : Audio Video Interleave
File size                                : 390 MiB
Duration                                 : 43mn 55s
Overall bit rate mode                    : Variable
Overall bit rate                         : 1 242 Kbps
Writing application                      : VirtualDubMod 1.5.10.2 (build 2540/release)
Writing library                          : VirtualDubMod build 2540/release

Video
ID                                       : 0
Format                                   : MPEG-4 Visual
Format profile                           : Advanced Simple@L5
Format settings, BVOP                    : 2
Format settings, QPel                    : No
Format settings, GMC                     : No warppoints
Format settings, Matrix                  : Default (H.263)
Muxing mode                              : Packed bitstream
Codec ID                                 : XVID
Codec ID/Hint                            : XviD
Duration                                 : 43mn 55s
Bit rate                                 : 975 Kbps
Width                                    : 624 pixels
Height                                   : 368 pixels
Display aspect ratio                     : 1.696
Frame rate                               : 25.000 fps
Color space                              : YUV
Chroma subsampling                       : 4:2:0
Bit depth                                : 8 bits
Scan type                                : Progressive
Compression mode                         : Lossy
Bits/(Pixel*Frame)                       : 0.170
Stream size                              : 306 MiB (79%)
Writing library                          : XviD 1.2.1 (UTC 2008-12-04)

Audio #1
ID                                       : 1
Format                                   : MPEG Audio
Format version                           : Version 1
Format profile                           : Layer 3
Mode                                     : Joint stereo
Mode extension                           : MS Stereo
Codec ID                                 : 55
Codec ID/Hint                            : MP3
Duration                                 : 43mn 55s
Bit rate mode                            : Constant
Bit rate                                 : 128 Kbps
Channel(s)                               : 2 channels
Sampling rate                            : 48.0 KHz
Compression mode                         : Lossy
Stream size                              : 40.2 MiB (10%)
Alignment                                : Aligned on interleaves
Interleave, duration                     : 40 ms (1.00 video frame)
Interleave, preload duration             : 504 ms
Writing library                          : LAME3.90.3

Audio #2
ID                                       : 2
Format                                   : MPEG Audio
Format version                           : Version 1
Format profile                           : Layer 3
Mode                                     : Joint stereo
Mode extension                           : MS Stereo
Codec ID                                 : 55
Codec ID/Hint                            : MP3
Duration                                 : 43mn 55s
Bit rate mode                            : Variable
Bit rate                                 : 121 Kbps
Nominal bit rate                         : 128 Kbps
Channel(s)                               : 2 channels
Sampling rate                            : 48.0 KHz
Compression mode                         : Lossy
Stream size                              : 38.1 MiB (10%)
Alignment                                : Aligned on interleaves
Interleave, duration                     : 24 ms (0.60 video frame)
Interleave, preload duration             : 522 ms
Writing library                          : LAME3.98r
Encoding settings                        : -m j -V 4 -q 2 -lowpass 17 --abr 128


General
Complete name                            : C:\Users\root\Desktop\torrent inenler\Merlin Sezon 02 DVDRip XviD DuaL TrDublaj\Merlin.S02B13.DVDRip.DUAL.XviD.avi
Format                                   : AVI
Format/Info                              : Audio Video Interleave
File size                                : 394 MiB
Duration                                 : 48mn 22s
Overall bit rate mode                    : Variable
Overall bit rate                         : 1 140 Kbps
Writing application                      : VirtualDubMod 1.5.10.2 (build 2540/release)
Writing library                          : VirtualDubMod build 2540/release

Video
ID                                       : 0
Format                                   : MPEG-4 Visual
Format profile                           : Advanced Simple@L5
Format settings, BVOP                    : 2
Format settings, QPel                    : No
Format settings, GMC                     : No warppoints
Format settings, Matrix                  : Default (H.263)
Muxing mode                              : Packed bitstream
Codec ID                                 : XVID
Codec ID/Hint                            : XviD
Duration                                 : 48mn 22s
Bit rate                                 : 872 Kbps
Width                                    : 624 pixels
Height                                   : 352 pixels
Display aspect ratio                     : 16:9
Frame rate                               : 25.000 fps
Color space                              : YUV
Chroma subsampling                       : 4:2:0
Bit depth                                : 8 bits
Scan type                                : Progressive
Compression mode                         : Lossy
Bits/(Pixel*Frame)                       : 0.159
Stream size                              : 302 MiB (77%)
Writing library                          : XviD 1.2.1 (UTC 2008-12-04)

Audio #1
ID                                       : 1
Format                                   : MPEG Audio
Format version                           : Version 1
Format profile                           : Layer 3
Mode                                     : Joint stereo
Mode extension                           : MS Stereo
Codec ID                                 : 55
Codec ID/Hint                            : MP3
Duration                                 : 48mn 22s
Bit rate mode                            : Constant
Bit rate                                 : 128 Kbps
Channel(s)                               : 2 channels
Sampling rate                            : 48.0 KHz
Compression mode                         : Lossy
Stream size                              : 44.3 MiB (11%)
Alignment                                : Aligned on interleaves
Interleave, duration                     : 40 ms (1.00 video frame)
Interleave, preload duration             : 504 ms
Writing library                          : LAME3.90.3

Audio #2
ID                                       : 2
Format                                   : MPEG Audio
Format version                           : Version 1
Format profile                           : Layer 3
Mode                                     : Joint stereo
Mode extension                           : MS Stereo
Codec ID                                 : 55
Codec ID/Hint                            : MP3
Duration                                 : 48mn 21s
Bit rate mode                            : Variable
Bit rate                                 : 122 Kbps
Nominal bit rate                         : 128 Kbps
Channel(s)                               : 2 channels
Sampling rate                            : 48.0 KHz
Compression mode                         : Lossy
Stream size                              : 42.1 MiB (11%)
Alignment                                : Aligned on interleaves
Interleave, duration                     : 24 ms (0.60 video frame)
Interleave, preload duration             : 470 ms
Writing library                          : LAME3.98r
Encoding settings                        : -m j -V 4 -q 2 -lowpass 17 --abr 128


 
1
#1 by bm453 (Gümüş Kullanıcı) 17-04-12 18:45
süpersin ewildead çok teşekkürler emeğine sağlık


0
#2 by mkcandeniz (züpper kullanıcı) 22-04-12 02:11
emeğine sağlık teşekkürler 4 sezon tr dub olarak ne zaman eklenecek merakla bekliyorum


0
#3 by EwiLDeaD (Psikolojik Vaka) 22-04-12 02:49
Rica ederim. Şu anda 4. Sezon için takipteyim. En kısa zamanda 4. Sezonda eklenecektir.

İyi seyirler


0
#4 by furkankck (Üstün Kullanıcı) 29-04-12 20:41
HIz Niye Düşük ?


0
#5 by EwiLDeaD (Psikolojik Vaka) 29-04-12 20:42
Dosyada şu anda 8 seeder ve 1 server bulunmaktadır. Lütfen ayarlarınızı kontrol edin.


1
#6 by snlcunyt (Gümüş Kullanıcı) 01-05-12 17:17
eline sağlık süper paylaşım


0
#7 by absconder (Bronz Kullanıcı) 07-05-12 00:32
Şu ayarlarınızı kontrol edecek misiniz boxla çektiğim halde 50kb geçmiyor nasıl iş anlamadım arkadaş.


0
#8 by EwiLDeaD (Psikolojik Vaka) 07-05-12 00:51
Ayarlar kontrol edilmiştir. Lüten tavrımıza dikkat edelim.

Saygılarımla.


0
#9 by sefa38 (Bronz Kullanıcı) 08-08-12 09:39
şu torrente bi reseed ayarlasanız
çok yavaş


Son düzenleyen sefa38 08-08-12 16:11


0
#10 by cometto (Üstün Kullanıcı) 12-10-12 16:45
2 gündür indirmeye çalışıyorum ama indiremedim.


0
#11 by YahyArslan (Gümüş Kullanıcı) 23-01-13 16:35
2 hafta olacak kımse seed yapmıyor galıba %90 kaldım bıraz seed yapalım lutfen....

4 hafta oldu %96.3 kaldım seed yapalım ....lütfen...


0
#12 by okanilbay (Üstün Kullanıcı) 24-01-14 03:27
seed edebilcek arkadaş varmı acaba


0
#13 by moryana (Üstün Kullanıcı) 03-06-14 16:03
lütfen seed edelim


Dosya yolu Boyut
avi  Merlin Sezon 01 DVDRip XviD DuaL TrDublaj/Merlin.S01B04.DVDRip.DUAL.XviD.avi 392.23 MB
avi  Merlin Sezon 01 DVDRip XviD DuaL TrDublaj/Merlin.S01B02.DVDRip.DUAL.XviD.avi 392.09 MB
avi  Merlin Sezon 01 DVDRip XviD DuaL TrDublaj/Merlin.S01B08.DVDRip.DUAL.XviD.avi 391.77 MB
avi  Merlin Sezon 01 DVDRip XviD DuaL TrDublaj/Merlin.S01B05.DVDRip.DUAL.XviD.avi 391.52 MB
avi  Merlin Sezon 01 DVDRip XviD DuaL TrDublaj/Merlin.S01B03.DVDRip.DUAL.XviD.avi 391.52 MB
avi  Merlin Sezon 01 DVDRip XviD DuaL TrDublaj/Merlin.S01B01.DVDRip.DUAL.XviD.avi 391.48 MB
avi  Merlin Sezon 01 DVDRip XviD DuaL TrDublaj/Merlin.S01B13.DVDRip.DUAL.XviD.avi 391.45 MB
avi  Merlin Sezon 01 DVDRip XviD DuaL TrDublaj/Merlin.S01B07.DVDRip.DUAL.XviD.avi 391.43 MB
avi  Merlin Sezon 01 DVDRip XviD DuaL TrDublaj/Merlin.S01B06.DVDRip.DUAL.XviD.avi 391.38 MB
avi  Merlin Sezon 01 DVDRip XviD DuaL TrDublaj/Merlin.S01B09.DVDRip.DUAL.XviD.avi 391.29 MB
avi  Merlin Sezon 01 DVDRip XviD DuaL TrDublaj/Merlin.S01B12.DVDRip.DUAL.XviD.avi 391.01 MB
avi  Merlin Sezon 01 DVDRip XviD DuaL TrDublaj/Merlin.S01B11.DVDRip.DUAL.XviD.avi 390.76 MB
avi  Merlin Sezon 01 DVDRip XviD DuaL TrDublaj/Merlin.S01B10.DVDRip.DUAL.XviD.avi 390.40 MB
avi  Merlin Sezon 02 DVDRip XviD DuaL TrDublaj/Merlin.S02B13.DVDRip.DUAL.XviD.avi 394.21 MB
avi  Merlin Sezon 02 DVDRip XviD DuaL TrDublaj/Merlin.S02B06.DVDRip.DUAL.XviD.avi 390.33 MB
avi  Merlin Sezon 02 DVDRip XviD DuaL TrDublaj/Merlin.S02B07.DVDRip.DUAL.XviD.avi 390.31 MB
avi  Merlin Sezon 02 DVDRip XviD DuaL TrDublaj/Merlin.S02B02.DVDRip.DUAL.XviD.avi 390.27 MB
avi  Merlin Sezon 02 DVDRip XviD DuaL TrDublaj/Merlin.S02B08.DVDRip.DUAL.XviD.avi 390.25 MB
avi  Merlin Sezon 02 DVDRip XviD DuaL TrDublaj/Merlin.S02B01.DVDRip.DUAL.XviD.avi 390.14 MB
avi  Merlin Sezon 02 DVDRip XviD DuaL TrDublaj/Merlin.S02B10.DVDRip.DUAL.XviD.avi 390.01 MB
avi  Merlin Sezon 02 DVDRip XviD DuaL TrDublaj/Merlin.S02B12.DVDRip.DUAL.XviD.avi 389.92 MB
avi  Merlin Sezon 02 DVDRip XviD DuaL TrDublaj/Merlin.S02B04.DVDRip.DUAL.XviD.avi 389.84 MB
avi  Merlin Sezon 02 DVDRip XviD DuaL TrDublaj/Merlin.S02B03.DVDRip.DUAL.XviD.avi 389.71 MB
avi  Merlin Sezon 02 DVDRip XviD DuaL TrDublaj/Merlin.S02B09.DVDRip.DUAL.XviD.avi 389.64 MB
avi  Merlin Sezon 02 DVDRip XviD DuaL TrDublaj/Merlin.S02B05.DVDRip.DUAL.XviD.avi 389.29 MB
avi  Merlin Sezon 02 DVDRip XviD DuaL TrDublaj/Merlin.S02B11.DVDRip.DUAL.XviD.avi 388.62 MB
avi  Merlin Sezon 03 DVDRip XviD DuaL TrDublaj/Merlin.S03B11.DVDRip.DUAL.XviD.avi 390.24 MB
avi  Merlin Sezon 03 DVDRip XviD DuaL TrDublaj/Merlin.S03B06.DVDRip.DUAL.XviD.avi 390.08 MB
avi  Merlin Sezon 03 DVDRip XviD DuaL TrDublaj/Merlin.S03B05.DVDRip.DUAL.XviD.avi 389.93 MB
avi  Merlin Sezon 03 DVDRip XviD DuaL TrDublaj/Merlin.S03B08.DVDRip.DUAL.XviD.avi 389.71 MB
avi  Merlin Sezon 03 DVDRip XviD DuaL TrDublaj/Merlin.S03B10.DVDRip.DUAL.XviD.avi 389.65 MB
avi  Merlin Sezon 03 DVDRip XviD DuaL TrDublaj/Merlin.S03B03.DVDRip.DUAL.XviD.avi 389.65 MB
avi  Merlin Sezon 03 DVDRip XviD DuaL TrDublaj/Merlin.S03B01.DVDRip.DUAL.XviD.avi 389.55 MB
avi  Merlin Sezon 03 DVDRip XviD DuaL TrDublaj/Merlin.S03B12.DVDRip.DUAL.XviD.avi 389.49 MB
avi  Merlin Sezon 03 DVDRip XviD DuaL TrDublaj/Merlin.S03B13.DVDRip.DUAL.XviD.avi 389.47 MB
avi  Merlin Sezon 03 DVDRip XviD DuaL TrDublaj/Merlin.S03B09.DVDRip.DUAL.XviD.avi 389.19 MB
avi  Merlin Sezon 03 DVDRip XviD DuaL TrDublaj/Merlin.S03B07.DVDRip.DUAL.XviD.avi 389.00 MB
avi  Merlin Sezon 03 DVDRip XviD DuaL TrDublaj/Merlin.S03B02.DVDRip.DUAL.XviD.avi 388.78 MB
avi  Merlin Sezon 03 DVDRip XviD DuaL TrDublaj/Merlin.S03B04.DVDRip.DUAL.XviD.avi 388.58 MB
txt  Read Me.txt 0.02 KB
0 seeder, 0 leecher = toplam 0 eş
Görüntüleme izniniz yok!
Reseed istemek için buraya tıklayın!
Açılan pencerede torrenti rapor edebilirsiniz
Maalesef, Bu özellik devre dışı.