Tinker Bell Gizemli Kanatlar 2012 BluRay 1080p DUAL DD 5.1 TR ENG x264 NOVA Altın Torrent (Sadece yükleme kayıtlarınız tutulur! Rationuzu artırmak için indirip seed edin!).
9.9 puan 12 oy da.
9.9 puan 12 oy da.
Zaten oyladınız!
İndir
Bookmark and Share
Torrent İndir
Eklendi 21-01-13 19:30 - (Son eş hareketi: 01-01-14 01:10)
Tür Blu-Ray 1080p
Boyut 8.30 GB 1 dosya
Tıklanma 196
İndirilme 59 defa
Uploader
Yorumlar 2 Yorumlar
Eşler 0 seeder, 0 leecher = toplam 0 eş
Reseed Reseed istemek için buraya tıklayın!
Video Bilgileri
KodekV_MPEG4/ISO/AVC
BitRate (kbps)15 200 kbps
Resulation1920x1080
Uzunluk (dakika)75 Dakika
Kalite (1-10)9/10
Audio Bilgileri
KodekAC3
BitRate (kbps)640 kbps
Frekans48.000 HZ
DilTürkçe - İngilizce
Torrenti yükleyen arkadaşımıza teşekkür edenler: (31)

IMDB/Web Link
Clochette et le Secret des Fées (2012) - IMDb
Clochette et le Secret des Fées (2012) - IMDbDirector:
Writers: Roberts Gannaway (screenplay), Peggy Holmes (screenplay), and 2 more credits »
Genres: Animation | Family | Fantasy
Release Date: 10 October 2012(France)See more »
User Rating: 6.5/10 6.5/10 ( votes)
Language: English
Country: USA
Storyline: Tinker Bell meets Periwinkle and ventures into the winter woods with her and Tinker Bell's other friends to find the secret of fairy wings.
Plot Keywords: Tinker Bell | Fairy | Based On Fairy Tale | Character Name In Title
IMDB Link: http://www.imdb.com/title/tt1217213/
Trailers & Videos

Torrent Tinker Bell Gizemli Kanatlar 2012 BluRay 1080p DUAL DD 5.1 TR ENG x264 NOVA indir

   

Tinker Bell Gizemli Kanatlar 2012 BluRay 1080p DUAL DD 5.1 TR ENG x264 NOVA



 

   


 
 

 

Disney'in Faries bünyesinde 3D olarak tasarlanan ilk film olma özelliğini taşıyan Tinkerbell: Gizemli Kanatlar, Tinker Bell ve peri arkadaşlarıyla birlikte izleyicisini Kış Ormanı'nın büyülü dünyasında bir yolculuğa çıkartıyor. Burada merak ve macera duygusuyla Tinker Bell, inanılmaz bir keşifte bulunuyor ve dünyasını önlenemez bir şekilde değiştirecek bir sırrı gün yüzüne çıkartıyor.

Filmin yönetmenliğini Peggy Holmes üstlenirken, senaryoda Bobs Gannaway, Peggy Holmes, Ryan Rowe ve Tom Rogers'ın imzası var. Filmin orijinal seslendirme kadrosunda ise Mae Whitman, Lucy Liu, Jesse McCartney ve Anjelica Huston gibi isimler yer alıyor.





 

----- Genel Bilgiler -----


Format : Matroska
Format version : Version 4 / Version 2
File size : 8.30 GiB
Duration : 1h 15mn
Overall bit rate : 15.8 Mbps

----- Video Bilgileri -----


Format : AVC
Format/Info : Advanced Video Codec
Format profile : High@L4.1
Format settings, CABAC : Yes
Format settings, ReFrames : 3 frames
Codec ID : V_MPEG4/ISO/AVC
Duration : 1h 15mn
Bit rate : 14.5 Mbps
Width : 1 920 pixels
Height : 1 080 pixels
Display aspect ratio : 16:9

----- Ses Bilgisi - Türkçe -----


Format : AC-3
Format/Info : Audio Coding 3
Mode extension : CM (complete main)
Format settings, Endianness : Big
Codec ID : A_AC3
Duration : 1h 15mn
Bit rate mode : Constant
Bit rate : 640 Kbps
Channel(s) : 6 channels
Channel positions : Front: L C R, Side: L R, LFE
Sampling rate : 48.0 KHz
Bit depth : 16 bits
Compression mode : Lossy
Stream size : 344 MiB (7%)
Title : AC3@640Kbps DD 5.1
Language : Turkish


----- Ses Bilgisi - İngilizce -----


Format : AC-3
Format/Info : Audio Coding 3
Mode extension : CM (complete main)
Format settings, Endianness : Big
Codec ID : A_AC3
Duration : 1h 15mn
Bit rate mode : Constant
Bit rate : 640 Kbps
Channel(s) : 6 channels
Channel positions : Front: L C R, Side: L R, LFE
Sampling rate : 48.0 KHz
Bit depth : 16 bits
Compression mode : Lossy
Stream size : 344 MiB (7%)
Title : AC3@640Kbps DD 5.1
Language : English

----- Alt Yazı Bilgisi -----


Format : PGS
Muxing mode : zlib
Codec ID : S_HDMV/PGS
Codec ID/Info : The same subtitle format used on BDs/HD-DVDs
Language : Turkish

 

 

 
 
 
 
 



 


Benzer Torrentler
Tür Ad Eklendi Uploader Seeder Leecher
Blu-Ray 1080p Gizemli Adaya Yolculuk 2 2012 Bluray 1080p DUAL TR ENG x264 NOVA 25-05-12 21:27 HDReady 0 0
Animasyon Tinker Bell Gizemli Kanatlar 2012 BDRip TRDub x264 NOVA 20-01-13 23:17 2 0
3D Tinker Bell Gizemli Kanatlar 2012 3D Half-OU DUAL DD 5.1 TR ENG x264 3DNova 21-01-13 20:38 2 0
Blu-Ray 1080p İnanılmaz Örümcek Adam 2012 BluRay 1080p DUAL TR ENG x264 NOVA 27-10-12 07:43 3 0
3D İnanılmaz Örümcek Adam 2012 3D BluRay 1080p Half SBS DUAL TR ENG x264 HDC [NOVA] 28-10-12 01:12 1 0
Blu-Ray 1080p Benim Oğlum 2012 BluRay 1080p DUAL TR ENG x264 NOVA 30-10-12 00:21 0 0
Blu-Ray 1080p Hazine Bekçileri Treasure Buddies 2012 Bluray 1080p DUAL TR ENG x264 NOVA 10-02-12 00:01 HDReady 0 3
Blu-Ray 1080p Son Vurgun Contraband 2012 Bluray 1080p DUAL DTS TR ENG x264 NOVA 26-05-12 13:50 HDReady 0 0
3D John Carter 3D 2012 1080p HSBS BluRay DUAL TR EN x264-HDChina[NOVA] 23-06-12 21:31
[TurkNova]
0 0
Blu-Ray 1080p John Carter Iki Dünya Arasında 2012 BluRay 1080p DUAL TR ENG x264 NOVA 25-05-12 15:49 HDReady 0 1
0
#1 by prescin (Üstün Kullanıcı) 21-01-13 21:18
yuzi şu titanik filminide 1920,,1080 yüklermisim arşiflik şimdiden teşekkür


0
#2 by TCAkinci (Gümüş Kullanıcı) 15-04-14 11:13
es yok arkadaslar lutfen esler ekleyelim



Söz ile Uslanmayanı Etmeli Tekdir, Tekdir ile Uslanmayanın Hakkı Kötektir

Dosya yolu Boyut
mkv  Tinker Bell Gizemli Kanatlar 2012 BluRay 1080p DUAL DD 5.1 TR ENG x264 NOVA.mkv 8.30 GB
0 seeder, 0 leecher = toplam 0 eş
Görüntüleme izniniz yok!
Reseed istemek için buraya tıklayın!
Açılan pencerede torrenti rapor edebilirsiniz
Maalesef, Bu özellik devre dışı.