Son Samuray The Last Samurai 2003 BluRay 1080p DUAL TR ENG x264 NOVA Altın Torrent (Sadece yükleme kayıtlarınız tutulur! Rationuzu artırmak için indirip seed edin!).
9.5 puan 17 oy da.
9.5 puan 17 oy da.
Zaten oyladınız!
İndir
Bookmark and Share
Torrent İndir
Eklendi 02-12-12 18:15 - (Son eş hareketi: 21-07-14 12:40)
Tür Blu-Ray 1080p
Boyut 11.68 GB 1 dosya
Tıklanma 333
İndirilme 52 defa
Uploader
Yorumlar 7 Yorumlar
Eşler 0 seeder, 0 leecher = toplam 0 eş
Reseed Reseed istemek için buraya tıklayın!
Video Bilgileri
Kodekx264 High@L 4.1
BitRate (kbps)10.000 kbps
Resulation1920x800
Uzunluk (dakika)154 Dakika
Kalite (1-10)10/10
Audio Bilgileri
KodekAC3 - DTS
BitRate (kbps)192 kbps
Frekans48.000 HZ
DilTürkçe - İngilizce
Torrenti yükleyen arkadaşımıza teşekkür edenler: (49)

IMDB/Web Link
Le dernier samouraï (2003) - IMDb
Le dernier samouraï (2003) - IMDbDirector: Edward Zwick
Writers: John Logan (story), John Logan (screenplay), and 2 more credits »
Genres: Action | Adventure | Drama | History | War
Release Date: 14 January 2004(France)See more »
User Rating: 7.7/10 7.7/10 ( votes)
Language: English | Japanese
Country: USA
Runtime: 154 min
Storyline: In the 1870s, Captain Nathan Algren, a cynical veteran of the American Civil war who will work for anyone, is hired by Americans who want lucrative contracts with the Emperor of Japan to train the peasant conscripts for the first standing imperial army in modern warfare using firearms. The imperial Omura cabinet's first priority is to repress a rebellion of traditionalist Samurai -hereditary warriors- who remain devoted to the sacred dynasty but reject the Westernizing policy and even refuse firearms. Yet when his ill-prepared superior force sets out too soon, their panic allows the sword-wielding samurai to crush them. Badly wounded Algren's courageous stand makes the samurai leader Katsumoto spare his life; once nursed to health he learns to know and respect the old Japanese way, and participates as advisor in Katsumoto's failed attempt to save the Bushido tradition, but...Written by KGF Vissers  
Plot Keywords: Samurai | Emperor | Japan | Honor | Captain |  »
Taglines: In the face of an enemy, in the Heart of One Man, Lies the Soul of a Warrior.
IMDB Link: http://www.imdb.com/title/tt0325710/
Trailers & Videos

Torrent Son Samuray The Last Samurai 2003 BluRay 1080p DUAL TR ENG x264 NOVA indir

 

 

Son Samuray The Last Samurai 2003 BluRay 1080p DUAL TR ENG x264 NOVA


 

   


 

 

1870'lerin Japonya'sında Amerikan ordusundan Yüzbaşı Nathan Algren, Japon İmparatorunun davetlisi olarak, ülkenin ilk modern ordusunu eğitmek üzere Tokyo'ya gelir.
Algren, komuta ettiği japon ordusunun başında savaştığı Samuraylara esir düşer. Samurayların son lideri Katsumoto (Ken Watanabe) yeni düşmanlarının kim olduğunu ve ne olduğunu anlamak için onun öldürülmesine izin vermez ve onu yaşadıkları samuray köyüne götürür. Yüzbaşı Algren samuray kültürüyle tanışır ve çok etkilenir. Bir samuray savaşçısı gibi hareket etmeyi,kılıç kullanmayı öğrenince büyük bir kararın eşiğine gelir. İki taraf arasında kalmıştır ve onurunun doğru yolu göstermesini bekler.


 

----- Genel Bilgiler -----


Format : Matroska
Format version : Version 2
File size : 11.7 GiB
Duration : 2h 34mn
Overall bit rate : 10.8 Mbps

----- Video Bilgileri -----


Format : AVC
Format/Info : Advanced Video Codec
Format profile : High@L4.1
Duration : 2h 34mn
Bit rate : 9999 Kbps
Width : 1920 pixels
Height : 800 pixels
Display aspect ratio : 2.40:1
Stream size : 10.6 GiB

----- Ses Bilgisi - İngilizce -----


Format : AC-3
Format/Info : Audio Coding 3
Duration : 2h 34mn
Bit rate : 640 Kbps
Channel(s) : 6 channels
Channel positions : Front: L C R, Side: L R, LFE
Stream size : 706 MiB
Title : NOVA - 640Kbps ENG
Language : English

----- Ses Bilgisi - Türkçe -----


Format : AC-3
Format/Info : Audio Coding 3
Format profile : Dolby Digital
Duration : 2h 34mn
Bit rate : 192 Kbps
Channel(s) : 2 channels
Channel positions : Front: L R
Stream size : 212 MiB
Title : NOVA - 192Kbps TR
Language : Turkish

----- Altyazılar -----


Format : PGS
Language : Turkish

Format : PGS
Language : English

 

 

 
 
 
 

 



 



Benzer Torrentler
Tür Ad Eklendi Uploader Seeder Leecher
Blu-Ray 1080p Kayıp Balık Nemo Finding Nemo 2003 BluRay 1080p DUAL TR ENG x264 NOVA 05-02-12 16:00 HDReady 0 0
Blu-Ray 1080p Lara Croft Tomb Raider Yaşamın Kaynağı 2003 BluRay 1080p DUAL TR ENG x264 NOVA 20-06-12 20:16
[TurkNova]
0 1
Blu-Ray 1080p Aliens vs Predator 2004 Unrated BluRay 1080p DUAL TR ENG x264 NOVA 22-06-12 19:00
[TurkNova]
0 2
Blu-Ray 1080p Alice Harikalar Diyarında 2010 BluRay 1080p DUAL TR ENG x264 NOVA 22-06-12 14:37
[TurkNova]
0 0
Blu-Ray 1080p Saving Private Ryan 1998 BluRay 1080p DUAL DTS TR ENG x264 NOVA 04-11-12 02:45 0 2
Blu-Ray 1080p Rango 2011 EC BluRay 1080p DUAL DTS & DD 5.1 x264 NOVA 07-07-13 13:11 0 1
Blu-Ray 1080p Tetikçi Shooter 2007 BluRay 1080p DUAL TR ENG x264 NOVA 03-06-12 22:12 HDReady 0 1
Blu-Ray 1080p Av Predators 2010 BluRay 1080p DUAL TR ENG x264 NOVA 16-02-12 21:14 HDReady 0 0
Blu-Ray 1080p Alacakaranlık Şafak Vakti Part 1 2011 BluRay 1080p DUAL TR ENG x264 NOVA 16-02-12 16:17 0 0
Blu-Ray 1080p Çizmeli Kedi Puss In Boots 2011 BluRay 1080p DUAL TR ENG x264 NOVA 13-02-12 22:59 HDReady 0 1
0
#1 by ozzo25 (Süper VIP) Bağış yaptı 03-12-12 00:17
720P BİR ZAHMET ARKADAŞIM


0
#2 by allalone (Bronz Kullanıcı) 03-12-12 01:25
harika 720p var zaten oncekı sunumlarda


0
#3 by FeRKoM (Üstün Kullanıcı) 03-12-12 13:34
700-800 mb boyutlu var mı acaba?



 
 

0
#4 by xgeml (Bronz Kullanıcı) 10-08-13 14:53
valla on numara film zaten şimdi gördüm bu gün siteye üye oldum ne zamandır uğraşıyordum zaten. mükenmelllll ellerinize sağlık.

ama seed eden yok sanırım.


0
#5 by gogali (Üstün Kullanıcı) 09-02-14 00:57
süper ötesi bir film seed edebilirseniz indirme şansımız olur bekliyoruz zahmet olmazsa


0
#6 by ERTU77 (Üstün Kullanıcı) 21-04-14 10:29
film indirmiyor lütfen seed yaparmısınız teşekkürler


Dosya yolu Boyut
mkv  Son Samuray The Last Samurai 2003 BluRay 1080p DUAL TR ENG x264 NOVA.mkv 11.68 GB
0 seeder, 0 leecher = toplam 0 eş
Görüntüleme izniniz yok!
Reseed istemek için buraya tıklayın!
Açılan pencerede torrenti rapor edebilirsiniz
Maalesef, Bu özellik devre dışı.