Berlin in Berlin 1993 DVDRip x264 Ac3 NOVA
9.2 puan 18 oy da.
9.2 puan 18 oy da.
Zaten oyladınız!
İndir
Bookmark and Share
Torrent İndir
Eklendi 01-06-12 20:40 - (Son eş hareketi: Bugün 21:00)
Tür Türk Filmi
Boyut 697.76 MB 1 dosya
Tıklanma 918
İndirilme 160 defa
Uploader [TurkNova]
Yorumlar 0 Yorumlar
Eşler 1 seeder, 0 leecher = toplam 1 eş
Torrenti yükleyen arkadaşımıza teşekkür edenler: (75)

IMDB/Web Link
Director(s): Sinan Çetin
Writer(s): Sinan Çetin, Ümit Ünal
Genre(s): Drama
Release Date: 12 May 1994
User Rating: 5.8/10 5.8/10 (649 votes)
Language: Turkish|German
Country: Turkey|Germany
Runtime: 99 min
Storyline: A young German engineer photographs a beautiful Turkish woman without her permission. Her husband finds out and starts a fight. In the midst of the argument the German engineer accidentally kills the husband. With his burdened conscience, he goes out to Berlin's Turkish district to find the woman. He is spotted by her relatives, and while escaping, by strange coincidence he ends up hiding in the man's home whom he has killed. According to Turkish customs, a guest in one's household must be treated with dignity and respect even if he is the enemy. Thus, the tension and difficulties among the Turkish family and the German engineer begin. As long as he stays he will survive, but how long can he live in the home of a man he murdered?
IMDB Link: http://www.imdb.com/title/tt0106389/
Trailers & Videos

Torrent Berlin in Berlin 1993 DVDRip x264 Ac3 NOVA indir


Berlin in Berlin 1993 DVDRip x264 Ac3 NOVA


 

 

Filmin Özeti
Berlin'de bir inşaatta ustabaşı olarak çalışan Mehmet, üç kuşaktır Almanya'da bulunan ailesiyle birlikte yaşamaktadır. Öğle paydoslarında sefertasıyla kocasına yemek getiren Dilber'e, dayanılmaz bir ilgi duyan Alman Mühendis Thomas, genç kadının gizlice fotoğraflarını çeker. Thomas'ın şantiyedeki odasında duvara asılmış fotoğrafları gören Mehmet, birden çılgına döner ve Dilber'i dövmeye başlar. Aralarına girip onları ayırmaya çalışan mühendisin, bu itişme sırasında duvara ittiği Mehmet, kafasına bir inşaat çivisi saplanarak ölür. Olaydan sonra vicdan azabı duyan Thomas, özür dilemek için Mehmet'in ailesine gider. Ne var ki o ana kadar ağabeyinin ölüm nedenini kaza sanan en büyük kardeşi Mürtüz, Thomas'ı öldürmeye kalkar. Ama araya girip töreleri hatırlatan büyükanne olayı yumuşatmaya çalışır. Törelere göre 'özür dilemeye gelip evlerine sığınan Tanrı misafiri öldürülemez. Ailesine ve törelerine başkaldırmayan Mürtüz, silahıyla Thomas'ın evden çıkmasını bekler. Günlerce süren bir tutsaklık sonucu Thomas bir yolunu bulup evden kaçmayı başarır. Özgürlüğüne kavuşan Thomas artık mutludur. Çünkü yalnız değildir. Ailesini terkeden Dilber yanındadır. Giderek psikopatlaşan Mürtüz'ün gözleri önünde Berlin sokaklarında Alman Thomas'la Türk Dilber el ele yürümektedirler...


 

 
 
 
 
 
 

Video
ID                               : 1
Format                           : AVC
Format/Info                      : Advanced Video Codec
Format profile                   : High@L3.0
Format settings, CABAC           : Yes
Format settings, ReFrames        : 3 frames
Muxing mode                      : Container profile=Unknown@3.0
Codec ID                         : V_MPEG4/ISO/AVC
Duration                         : 1h 34mn
Bit rate                         : 820 Kbps
Nominal bit rate                 : 840 Kbps
Width                            : 720 pixels
Height                           : 420 pixels
Display aspect ratio             : 16:9
Frame rate                       : 25.000 fps
Resolution                       : 24 bits
Colorimetry                      : 4:2:0
Scan type                        : Progressive
Bits/(Pixel*Frame)               : 0.109
Stream size                      : 554 MiB (79%)
Writing library                  : x264 core 120 r2164 da19765


Audio
ID                               : 2
Format                           : AC-3
Format/Info                      : Audio Coding 3
Codec ID                         : A_AC3
Duration                         : 1h 34mn
Bit rate mode                    : Constant
Bit rate                         : 192 Kbps
Channel(s)                       : 2 channels
Channel positions                : L R
Sampling rate                    : 48.0 KHz
Stream size                      : 130 MiB (19%)
Title                            : 92Kbps DELAY 0ms  TR Nİght
Language                         : Turkish

Text
ID                               : 3
Format                           : UTF-8
Codec ID                         : S_TEXT/UTF8
Codec ID/Info                    : UTF-8 Plain Text
Title                            : alt yazı  ENG Night




 

Henüz kimse yorum yapmadı. Görüşlerinizi bildirmek ister misiniz?

Dosya yolu Boyut
mkv  Berlin in Berlin 1993 DVDRip x264 Ac3 NOVA.mkv 697.76 MB
1 seeder, 0 leecher = toplam 1 eş
Görüntüleme izniniz yok!
Açılan pencerede torrenti rapor edebilirsiniz
Maalesef, Bu özellik devre dışı.